[NSBC] Anata no Ban Desu E09 [WEBDL] [1080p]

Category:
Date:
2019-06-10 00:38 UTC
Submitter:
Seeders:
9
Information:
TlNCQy50bw==
Leechers:
1
File size:
716.6 MiB
Completed:
2593
Info hash:
e9e32ca94861b2eff5f33d363916f56f818c5df6
![POSTER](http://img.topddl.net/images/5619e0ec8bf6744003a9ced6c57f860b.png "") ![Thumbnails](http://img.topddl.net/images/f07792a8562c4fd66bb05751324530f3.jpg "") ``` General Unique ID : 27240541014267389208294314536939571213 (0x147E565D7DD992A2C78FC46B37E4480D) Complete name : [NSBC] Anata no Ban Desu E09 [WEBDL] [1080p].mkv Format : Matroska Format version : Version 4 File size : 717 MiB Duration : 46 min 4 s Overall bit rate : 2 175 kb/s Movie name : [NSBC] Anata no Ban Desu E09 [WEBDL] [1080p] Encoded by : NoNe | NSBC Encoded date : UTC 2019-06-10 00:18:26 Writing application : mkvmerge v34.0.0 ('Sight and Seen') 64-bit Writing library : libebml v1.3.7 + libmatroska v1.5.0 Copyright : NSBC Comment : NoNe | NSBC DATE_RECORDED : 2019 Video ID : 1 Format : AVC Format/Info : Advanced Video Codec Format profile : High@L4 Format settings : CABAC / 4 Ref Frames Format settings, CABAC : Yes Format settings, RefFrames : 4 frames Codec ID : V_MPEG4/ISO/AVC Duration : 46 min 3 s Bit rate : 2 108 kb/s Width : 1 920 pixels Height : 1 080 pixels Display aspect ratio : 16:9 Frame rate mode : Constant Frame rate : 29.970 (30000/1001) FPS Color space : YUV Chroma subsampling : 4:2:0 Bit depth : 8 bits Scan type : Progressive Bits/(Pixel*Frame) : 0.034 Stream size : 695 MiB (97%) Title : [NSBC] Writing library : Zencoder Video Encoding System Default : No Forced : No Audio ID : 2 Format : AAC LC Format/Info : Advanced Audio Codec Low Complexity Codec ID : A_AAC-2 Duration : 46 min 4 s Bit rate : 64.0 kb/s Channel(s) : 2 channels Channel layout : L R Sampling rate : 48.0 kHz Frame rate : 46.875 FPS (1024 SPF) Compression mode : Lossy Delay relative to video : -67 ms Stream size : 21.1 MiB (3%) Title : [NSBC] Language : Japanese Default : Yes Forced : No ```

File list

  • [NSBC] Anata no Ban Desu E09 [WEBDL] [1080p].mkv (716.6 MiB)