[NSBC] Ore no Sukato, Doko Itta? E08 [WEBDL] [1080p]

Category:
Date:
2019-06-09 00:31 UTC
Submitter:
Seeders:
2
Information:
TlNCQy50bw==
Leechers:
0
File size:
723.5 MiB
Completed:
800
Info hash:
b7b6abe5b616ce28e1c15804ff491653ae5e9b11
![POSTER](http://img.topddl.net/images/06b2f8434e9d72c49feab46533f9904f.png "POSTER") ![Thumbnails](http://img.topddl.net/images/7b166c2583506e63880b5857037d236e.jpg "Thumbnails") ``` General Unique ID : 17427561335417680520527083224167868071 (0xD1C6D1CF940420A7DF2ACC4CCB7E6A7) Complete name : [NSBC] Ore no Sukato, Doko Itta E08 [WEBDL] [1080p].mkv Format : Matroska Format version : Version 4 File size : 724 MiB Duration : 45 min 58 s Overall bit rate : 2 200 kb/s Movie name : [NSBC] Ore no Sukato, Doko Itta? E08 [WEBDL] [1080p] Encoded by : NoNe | NSBC Encoded date : UTC 2019-06-09 00:18:58 Writing application : mkvmerge v34.0.0 ('Sight and Seen') 64-bit Writing library : libebml v1.3.7 + libmatroska v1.5.0 Copyright : NSBC Comment : NoNe | NSBC DATE_RECORDED : 2019 Video ID : 1 Format : AVC Format/Info : Advanced Video Codec Format profile : High@L4 Format settings : CABAC / 4 Ref Frames Format settings, CABAC : Yes Format settings, RefFrames : 4 frames Codec ID : V_MPEG4/ISO/AVC Duration : 45 min 58 s Bit rate : 2 134 kb/s Width : 1 920 pixels Height : 1 080 pixels Display aspect ratio : 16:9 Frame rate mode : Constant Frame rate : 29.970 (30000/1001) FPS Color space : YUV Chroma subsampling : 4:2:0 Bit depth : 8 bits Scan type : Progressive Bits/(Pixel*Frame) : 0.034 Stream size : 702 MiB (97%) Title : [NSBC] Writing library : Zencoder Video Encoding System Default : No Forced : No Color range : Limited Color primaries : BT.709 Transfer characteristics : BT.709 Matrix coefficients : BT.709 Audio ID : 2 Format : AAC LC Format/Info : Advanced Audio Codec Low Complexity Codec ID : A_AAC-2 Duration : 45 min 58 s Bit rate : 63.9 kb/s Channel(s) : 2 channels Channel layout : L R Sampling rate : 48.0 kHz Frame rate : 46.875 FPS (1024 SPF) Compression mode : Lossy Delay relative to video : -67 ms Stream size : 21.0 MiB (3%) Title : [NSBC] Language : Japanese Default : Yes Forced : No ```

File list

  • [NSBC] Ore no Sukato, Doko Itta E08 [WEBDL] [1080p].mkv (723.5 MiB)