[NSBC] Tokyo Dokushin Danshi E08 [WEBDL] [1080p]

Category:
Date:
2019-06-09 00:31 UTC
Submitter:
Seeders:
5
Information:
TlNCQy50bw==
Leechers:
0
File size:
641.2 MiB
Completed:
447
Info hash:
259c322c6e491f9ba528cff4820e341c2d78a023
![POSTER](http://img.topddl.net/images/e420ff8362f244ec0acebe4694e05a71.jpg "") ![Thumbnails](http://img.topddl.net/images/ad2ac1664a6feb93510de01ea9027270.jpg "") ``` General Unique ID : 172366445498656099493589657452862320895 (0x81AC91E39CDE6981C8F41C77DC7930FF) Complete name : [NSBC] Tokyo Dokushin Danshi E08 [WEBDL] [1080p].mkv Format : Matroska Format version : Version 4 File size : 641 MiB Duration : 39 min 56 s Overall bit rate : 2 244 kb/s Movie name : [NSBC] Tokyo Dokushin Danshi E08 [WEBDL] [1080p] Encoded by : NoNe | NSBC Encoded date : UTC 2019-06-09 00:19:21 Writing application : mkvmerge v34.0.0 ('Sight and Seen') 64-bit Writing library : libebml v1.3.7 + libmatroska v1.5.0 Copyright : NSBC Comment : NoNe | NSBC DATE_RECORDED : 2019 Video ID : 1 Format : AVC Format/Info : Advanced Video Codec Format profile : High@L4 Format settings : CABAC / 4 Ref Frames Format settings, CABAC : Yes Format settings, RefFrames : 4 frames Codec ID : V_MPEG4/ISO/AVC Duration : 39 min 56 s Bit rate : 2 178 kb/s Width : 1 920 pixels Height : 1 080 pixels Display aspect ratio : 16:9 Frame rate mode : Constant Frame rate : 29.970 (30000/1001) FPS Color space : YUV Chroma subsampling : 4:2:0 Bit depth : 8 bits Scan type : Progressive Bits/(Pixel*Frame) : 0.035 Stream size : 622 MiB (97%) Title : [NSBC] Writing library : Zencoder Video Encoding System Default : No Forced : No Color range : Limited Matrix coefficients : BT.709 Audio ID : 2 Format : AAC LC Format/Info : Advanced Audio Codec Low Complexity Codec ID : A_AAC-2 Duration : 39 min 56 s Bit rate : 63.8 kb/s Channel(s) : 2 channels Channel layout : L R Sampling rate : 48.0 kHz Frame rate : 46.875 FPS (1024 SPF) Compression mode : Lossy Delay relative to video : -67 ms Stream size : 18.2 MiB (3%) Title : [NSBC] Language : Japanese Default : Yes Forced : No ```

File list

  • [NSBC] Tokyo Dokushin Danshi E08 [WEBDL] [1080p].mkv (641.2 MiB)