[NSBC] Kaseifu no Mitazono 3 E08 [WEBDL] [1080p]

Category:
Date:
2019-06-08 10:29 UTC
Submitter:
Seeders:
10
Information:
TlNCQy50bw==
Leechers:
1
File size:
1.7 GiB
Completed:
563
Info hash:
5712cdf95530c661ace9510348662487613d1ff3
![POSTER](http://img.topddl.net/images/06217ebe0528a8fb1fe1b7b2715f54fa.png "") ![Thumbnails](http://img.topddl.net/images/f9261d9609960ad93c16aee29d90b551.jpg "") ``` General Unique ID : 12321944083151807659565958905968890864 (0x9451EBF6A91AACFE8D42BD83B8A93F0) Complete name : [NSBC] Kaseifu no Mitazono 3 E08 [WEBDL] [1080p].mkv Format : Matroska Format version : Version 4 File size : 1.71 GiB Duration : 47 min 45 s Overall bit rate : 5 121 kb/s Movie name : [NSBC] Kaseifu no Mitazono 3 E08 [WEBDL] [1080p] Encoded by : NoNe | NSBC Encoded date : UTC 2019-06-08 10:12:12 Writing application : mkvmerge v34.0.0 ('Sight and Seen') 64-bit Writing library : libebml v1.3.7 + libmatroska v1.5.0 Copyright : NSBC Comment : NoNe | NSBC DATE_RECORDED : 2019 Video ID : 1 Format : AVC Format/Info : Advanced Video Codec Format profile : High@L4 Format settings : CABAC / 3 Ref Frames Format settings, CABAC : Yes Format settings, RefFrames : 3 frames Format settings, GOP : M=1, N=30 Codec ID : V_MPEG4/ISO/AVC Duration : 47 min 44 s Bit rate : 4 991 kb/s Width : 1 920 pixels Height : 1 080 pixels Display aspect ratio : 16:9 Frame rate mode : Constant Frame rate : 29.970 (30000/1001) FPS Color space : YUV Chroma subsampling : 4:2:0 Bit depth : 8 bits Scan type : Progressive Bits/(Pixel*Frame) : 0.080 Stream size : 1.66 GiB (97%) Title : [NSBC] Writing library : Zencoder Video Encoding System Default : No Forced : No Color range : Limited Matrix coefficients : BT.709 Audio ID : 2 Format : AAC LC Format/Info : Advanced Audio Codec Low Complexity Codec ID : A_AAC-2 Duration : 47 min 45 s Bit rate : 128 kb/s Channel(s) : 2 channels Channel layout : L R Sampling rate : 48.0 kHz Frame rate : 46.875 FPS (1024 SPF) Compression mode : Lossy Stream size : 43.6 MiB (2%) Title : [NSBC] Language : Japanese Default : Yes Forced : No ```

File list

  • [NSBC] Kaseifu no Mitazono 3 E08 [WEBDL] [1080p].mkv (1.7 GiB)