[NSBC] Shitsuji Saionji no Meisuiri 2 E07 [WEBDL] [720p]

Category:
Date:
2019-06-08 10:29 UTC
Submitter:
Seeders:
2
Information:
TlNCQy50bw==
Leechers:
0
File size:
1012.9 MiB
Completed:
528
Info hash:
56b21b66ae6aa4da4544f7a16c61e099352f8d23
![POSTER](http://img.topddl.net/images/e0184e26fd034040825b039f1fc547bc.jpg "") ![Thumbnails](http://img.topddl.net/images/f1bef37eb84db10490ccf56f01950f20.jpg "") ``` General Unique ID : 304198179584657569975863051093095593211 (0xE4DA70350510F76C78915FBE0B75B4FB) Complete name : [NSBC] Shitsuji Saionji no Meisuiri 2 E07 [WEBDL] [720p].mkv Format : Matroska Format version : Version 4 File size : 1 013 MiB Duration : 45 min 21 s Overall bit rate : 3 123 kb/s Movie name : [NSBC] Shitsuji Saionji no Meisuiri 2 E07 [WEBDL] [720p] Encoded by : NoNe | NSBC Encoded date : UTC 2019-06-08 10:14:58 Writing application : mkvmerge v34.0.0 ('Sight and Seen') 64-bit Writing library : libebml v1.3.7 + libmatroska v1.5.0 Copyright : NSBC Comment : NoNe | NSBC DATE_RECORDED : 2019 Video ID : 1 Format : AVC Format/Info : Advanced Video Codec Format profile : Main@L3.1 Format settings : CABAC / 3 Ref Frames Format settings, CABAC : Yes Format settings, RefFrames : 3 frames Format settings, GOP : M=1, N=30 Codec ID : V_MPEG4/ISO/AVC Duration : 45 min 20 s Bit rate : 2 992 kb/s Width : 1 280 pixels Height : 720 pixels Display aspect ratio : 16:9 Frame rate mode : Constant Frame rate : 29.970 (30000/1001) FPS Color space : YUV Chroma subsampling : 4:2:0 Bit depth : 8 bits Scan type : Progressive Bits/(Pixel*Frame) : 0.108 Stream size : 970 MiB (96%) Title : [NSBC] Writing library : Zencoder Video Encoding System Default : No Forced : No Audio ID : 2 Format : AAC LC Format/Info : Advanced Audio Codec Low Complexity Codec ID : A_AAC-2 Duration : 45 min 21 s Bit rate : 128 kb/s Channel(s) : 2 channels Channel layout : L R Sampling rate : 48.0 kHz Frame rate : 46.875 FPS (1024 SPF) Compression mode : Lossy Stream size : 41.5 MiB (4%) Title : [NSBC] Language : Japanese Default : Yes Forced : No ```

File list

  • [NSBC] Shitsuji Saionji no Meisuiri 2 E07 [WEBDL] [720p].mkv (1012.9 MiB)