[NSBC] Akari to Kuzu E01 [WEBDL] [1080p]

Category:
Date:
2019-06-08 00:39 UTC
Submitter:
Seeders:
2
Information:
TlNCQy50bw==
Leechers:
0
File size:
227.0 MiB
Completed:
560
Info hash:
9e2847d0de3baf2840c09969e5d29dde418cb852
![POSTER](http://img.topddl.net/images/607f750ecbd4b712835bb9703f20fe75.jpg "") ![Thumbnails](http://img.topddl.net/images/26b8e99711586fe553eab08c5bedb06c.jpg "") ``` General Unique ID : 55793845125015903171537586500821243228 (0x29F980F2BCBF69679507FF510EAAD55C) Complete name : [NSBC] Akari to Kuzu E01 [WEBDL] [1080p].mkv Format : Matroska Format version : Version 4 File size : 227 MiB Duration : 14 min 28 s Overall bit rate : 2 194 kb/s Movie name : [NSBC] Akari to Kuzu E01 [WEBDL] [1080p] Encoded by : NoNe | NSBC Encoded date : UTC 2019-06-08 00:26:29 Writing application : mkvmerge v34.0.0 ('Sight and Seen') 64-bit Writing library : libebml v1.3.7 + libmatroska v1.5.0 / Lavf57.83.100 Copyright : NSBC Comment : NoNe | NSBC DATE_RECORDED : 2019 Video ID : 1 Format : AVC Format/Info : Advanced Video Codec Format profile : High@L4 Format settings : CABAC / 4 Ref Frames Format settings, CABAC : Yes Format settings, RefFrames : 4 frames Codec ID : V_MPEG4/ISO/AVC Duration : 14 min 28 s Bit rate : 2 063 kb/s Width : 1 920 pixels Height : 1 080 pixels Display aspect ratio : 16:9 Frame rate mode : Constant Frame rate : 29.970 (30000/1001) FPS Color space : YUV Chroma subsampling : 4:2:0 Bit depth : 8 bits Scan type : Progressive Bits/(Pixel*Frame) : 0.033 Stream size : 213 MiB (94%) Title : [NSBC] Writing library : Zencoder Video Encoding System Default : Yes Forced : No VARIANT_BITRATE : 0 Audio ID : 2 Format : AAC LC Format/Info : Advanced Audio Codec Low Complexity Codec ID : A_AAC-2 Duration : 14 min 28 s Bit rate : 128 kb/s Channel(s) : 2 channels Channel layout : L R Sampling rate : 48.0 kHz Frame rate : 46.875 FPS (1024 SPF) Compression mode : Lossy Stream size : 13.2 MiB (6%) Title : [NSBC] Language : Japanese Default : Yes Forced : No VARIANT_BITRATE : 0 ```

File list

  • [NSBC] Akari to Kuzu E01 [WEBDL] [1080p].mkv (227.0 MiB)