[NSBC] In Hand E09 [WEBDL] [1080p]

Category:
Date:
2019-06-08 00:39 UTC
Submitter:
Seeders:
13
Information:
TlNCQy50bw==
Leechers:
2
File size:
776.7 MiB
Completed:
973
Info hash:
9c8a36b80dc83a129ed71a3ce2b11515969afb97
![POSTER](http://img.topddl.net/images/1a977c6761c053cff807ab2cfe074afc.jpg "") ![Thumbnails](http://img.topddl.net/images/5baedb1d07a62f12034a9b1d35a1c712.jpg "") ``` General Unique ID : 36163938611689870332750288464922623632 (0x1B34EBD597DBB7579DA1BDAA69393E90) Complete name : [NSBC] In Hand E09 [WEBDL] [1080p].mkv Format : Matroska Format version : Version 4 File size : 777 MiB Duration : 46 min 2 s Overall bit rate : 2 359 kb/s Movie name : [NSBC] In Hand E09 [WEBDL] [1080p] Encoded by : NoNe | NSBC Encoded date : UTC 2019-06-08 00:27:17 Writing application : mkvmerge v34.0.0 ('Sight and Seen') 64-bit Writing library : libebml v1.3.7 + libmatroska v1.5.0 Copyright : NSBC Comment : NoNe | NSBC DATE_RECORDED : 2019 Video ID : 1 Format : AVC Format/Info : Advanced Video Codec Format profile : High@L4 Format settings : CABAC / 4 Ref Frames Format settings, CABAC : Yes Format settings, RefFrames : 4 frames Codec ID : V_MPEG4/ISO/AVC Duration : 46 min 1 s Bit rate : 2 293 kb/s Width : 1 920 pixels Height : 1 080 pixels Display aspect ratio : 16:9 Frame rate mode : Constant Frame rate : 29.970 (30000/1001) FPS Color space : YUV Chroma subsampling : 4:2:0 Bit depth : 8 bits Scan type : Progressive Bits/(Pixel*Frame) : 0.037 Stream size : 755 MiB (97%) Title : [NSBC] Writing library : Zencoder Video Encoding System Default : No Forced : No Color range : Limited Color primaries : BT.709 Transfer characteristics : BT.709 Matrix coefficients : BT.709 VARIANT_BITRATE : 2732400 Audio ID : 2 Format : AAC LC Format/Info : Advanced Audio Codec Low Complexity Codec ID : A_AAC-2 Duration : 46 min 2 s Bit rate : 63.9 kb/s Channel(s) : 2 channels Channel layout : L R Sampling rate : 48.0 kHz Frame rate : 46.875 FPS (1024 SPF) Compression mode : Lossy Delay relative to video : -67 ms Stream size : 21.0 MiB (3%) Title : [NSBC] Language : Japanese Default : Yes Forced : No Comment : en (Main) VARIANT_BITRATE : 333300 ```

File list

  • [NSBC] In Hand E09 [WEBDL] [1080p].mkv (776.7 MiB)