[NSBC] Mukai no Bazuru Kazoku E10 [WEBDL] [720p]

Category:
Date:
2019-06-07 03:59 UTC
Submitter:
Seeders:
8
Information:
TlNCQy50bw==
Leechers:
0
File size:
958.5 MiB
Completed:
508
Info hash:
44e1aa25d8c46eafb29187416ecdd49b67852de4
![POSTER](http://img.topddl.net/images/2098c2d392bf470a0529bd55f634cc5c.jpg "") ![Thumbnail](http://img.topddl.net/images/e764b74f0ecae9b2ec310fbc15d8d87a.jpg "") ``` General Unique ID : 328129441572449914816723549572209871010 (0xF6DB6E84EFA60666DDB3D38B03F488A2) Complete name : [NSBC] Mukai no Bazuru Kazoku E10 [WEBDL] [720p].mkv Format : Matroska Format version : Version 4 File size : 958 MiB Duration : 42 min 52 s Overall bit rate : 3 126 kb/s Movie name : [NSBC] Mukai no Bazuru Kazoku E10 [WEBDL] [720p] Encoded by : NoNe | NSBC Encoded date : UTC 2019-06-07 03:49:57 Writing application : mkvmerge v34.0.0 ('Sight and Seen') 64-bit Writing library : libebml v1.3.7 + libmatroska v1.5.0 Copyright : NSBC Comment : NoNe | NSBC DATE_RECORDED : 2019 Video ID : 1 Format : AVC Format/Info : Advanced Video Codec Format profile : Main@L3.1 Format settings : CABAC / 3 Ref Frames Format settings, CABAC : Yes Format settings, RefFrames : 3 frames Format settings, GOP : M=1, N=30 Codec ID : V_MPEG4/ISO/AVC Duration : 42 min 52 s Bit rate : 2 996 kb/s Width : 1 280 pixels Height : 720 pixels Display aspect ratio : 16:9 Frame rate mode : Constant Frame rate : 29.970 (30000/1001) FPS Color space : YUV Chroma subsampling : 4:2:0 Bit depth : 8 bits Scan type : Progressive Bits/(Pixel*Frame) : 0.108 Stream size : 918 MiB (96%) Title : [NSBC] Writing library : Zencoder Video Encoding System Default : No Forced : No VARIANT_BITRATE : 3434200 Audio ID : 2 Format : AAC LC Format/Info : Advanced Audio Codec Low Complexity Codec ID : A_AAC-2 Duration : 42 min 52 s Bit rate : 128 kb/s Channel(s) : 2 channels Channel layout : L R Sampling rate : 48.0 kHz Frame rate : 46.875 FPS (1024 SPF) Compression mode : Lossy Stream size : 39.2 MiB (4%) Title : [NSBC] Language : Japanese Default : Yes Forced : No Comment : en (Main) ```

File list

  • [NSBC] Mukai no Bazuru Kazoku E10 [WEBDL] [720p].mkv (958.5 MiB)