[NSBC] Strawberry Night Saga E09 [WEBDL] [720p]

Category:
Date:
2019-06-07 03:41 UTC
Submitter:
Seeders:
7
Information:
TlNCQy50bw==
Leechers:
0
File size:
436.7 MiB
Completed:
820
Info hash:
b8c1a78183e6b9fce381eed5045e4a42c547c6a0
![POSTER](http://img.topddl.net/images/a0547034f1ae34fee67c0720ee545e6d.png "") ![Thumbnails](http://img.topddl.net/images/dc0351a594bf114fc1493940882d3f73.jpg "") ``` General Unique ID : 256940386713549391940280818638032226125 (0xC14CEB20CF9D996FCC27A71AD4C8474D) Complete name : [NSBC] Strawberry Night Saga E09 [WEBDL] [720p].mkv Format : Matroska Format version : Version 4 File size : 437 MiB Duration : 46 min 22 s Overall bit rate mode : Variable Overall bit rate : 1 317 kb/s Movie name : [NSBC] Strawberry Night Saga E09 [WEBDL] [720p] Encoded by : NoNe | NSBC Encoded date : UTC 2019-06-07 03:27:53 Writing application : mkvmerge v34.0.0 ('Sight and Seen') 64-bit Writing library : libebml v1.3.7 + libmatroska v1.5.0 Copyright : NSBC Comment : NoNe | NSBC DATE_RECORDED : 2019 Video ID : 1 Format : AVC Format/Info : Advanced Video Codec Format profile : High@L4.1 Format settings : CABAC / 2 Ref Frames Format settings, CABAC : Yes Format settings, RefFrames : 2 frames Codec ID : V_MPEG4/ISO/AVC Duration : 46 min 21 s Bit rate mode : Variable Bit rate : 1 189 kb/s Maximum bit rate : 4 500 kb/s Width : 1 280 pixels Height : 720 pixels Display aspect ratio : 16:9 Frame rate mode : Constant Frame rate : 29.970 (30000/1001) FPS Color space : YUV Chroma subsampling : 4:2:0 Bit depth : 8 bits Scan type : Progressive Bits/(Pixel*Frame) : 0.043 Stream size : 394 MiB (90%) Title : [NSBC] Default : Yes Forced : No VARIANT_BITRATE : 0 Audio ID : 2 Format : AAC LC Format/Info : Advanced Audio Codec Low Complexity Codec ID : A_AAC-2 Duration : 46 min 21 s Bit rate : 125 kb/s Channel(s) : 2 channels Channel layout : L R Sampling rate : 48.0 kHz Frame rate : 46.875 FPS (1024 SPF) Compression mode : Lossy Delay relative to video : -33 ms Stream size : 41.6 MiB (10%) Title : [NSBC] Language : Japanese Default : Yes Forced : No VARIANT_BITRATE : 0 ```

File list

  • [NSBC] Strawberry Night Saga E09 [WEBDL] [720p].mkv (436.7 MiB)