[NSBC] Hakui no Senshi E08 [WEBDL] [1080p]

Category:
Date:
2019-06-05 23:41 UTC
Submitter:
Seeders:
4
Information:
TlNCQy50bw==
Leechers:
0
File size:
904.4 MiB
Completed:
785
Info hash:
a151ff43fd1412915ffd0f229d8b655aab0b71e6
![POSTER](http://img.topddl.net/images/76936e74edfd1dab488dc1ca56c95883.png "") ![Thumbnails](http://img.topddl.net/images/333b5f6812aa41b6a330b211408a762e.jpg "") ``` General Unique ID : 327430694332295862808166455563575649387 (0xF654DB9ED993A8A295B7ABD6DB30646B) Complete name : [NSBC] Hakui no Senshi E08 [WEBDL] [1080p].mkv Format : Matroska Format version : Version 4 File size : 904 MiB Duration : 51 min 9 s Overall bit rate : 2 472 kb/s Movie name : [NSBC] Hakui no Senshi E08 [WEBDL] [1080p] Encoded by : NoNe | NSBC Encoded date : UTC 2019-06-05 23:34:54 Writing application : mkvmerge v34.0.0 ('Sight and Seen') 64-bit Writing library : libebml v1.3.7 + libmatroska v1.5.0 / Lavf57.83.100 Copyright : NSBC Comment : NoNe | NSBC DATE_RECORDED : 2019 Video ID : 1 Format : AVC Format/Info : Advanced Video Codec Format profile : High@L4 Format settings : CABAC / 4 Ref Frames Format settings, CABAC : Yes Format settings, RefFrames : 4 frames Codec ID : V_MPEG4/ISO/AVC Duration : 51 min 8 s Bit rate : 2 278 kb/s Width : 1 920 pixels Height : 1 080 pixels Display aspect ratio : 16:9 Frame rate mode : Constant Frame rate : 29.970 (30000/1001) FPS Color space : YUV Chroma subsampling : 4:2:0 Bit depth : 8 bits Scan type : Progressive Bits/(Pixel*Frame) : 0.037 Stream size : 833 MiB (92%) Title : [NSBC] Writing library : Zencoder Video Encoding System Default : Yes Forced : No Color range : Limited Color primaries : BT.709 Transfer characteristics : BT.709 Matrix coefficients : BT.709 VARIANT_BITRATE : 0 Audio ID : 2 Format : AAC LC Format/Info : Advanced Audio Codec Low Complexity Codec ID : A_AAC-2 Duration : 51 min 9 s Bit rate : 192 kb/s Channel(s) : 2 channels Channel layout : L R Sampling rate : 48.0 kHz Frame rate : 46.875 FPS (1024 SPF) Compression mode : Lossy Stream size : 70.2 MiB (8%) Title : [NSBC] Language : Japanese Default : Yes Forced : No VARIANT_BITRATE : 0 ```

File list

  • [NSBC] Hakui no Senshi E08 [WEBDL] [1080p].mkv (904.4 MiB)