[NSBC] Tokyo Dokushin Danshi E07 [WEBDL] [1080p]

Category:
Date:
2019-06-02 01:06 UTC
Submitter:
Seeders:
1
Information:
TlNCQy50bw==
Leechers:
0
File size:
659.2 MiB
Completed:
591
Info hash:
0896de5ca541be8c68cd2712ef92ffc8d13aa59d
![POSTER](http://img.topddl.net/images/e420ff8362f244ec0acebe4694e05a71.jpg "") ![Thumbnails](http://img.topddl.net/images/e53ebe7a6ed1f4a9c49efc49a0509bb7.jpg "") ``` General Unique ID : 303416689718981077887174531500254558489 (0xE443EDC82C8EB3D42156D9896165F919) Complete name : [NSBC] Tokyo Dokushin Danshi E07 [WEBDL] [1080p].mkv Format : Matroska Format version : Version 4 File size : 659 MiB Duration : 40 min 14 s Overall bit rate : 2 290 kb/s Movie name : [NSBC] Tokyo Dokushin Danshi E07 [WEBDL] [1080p] Encoded by : NoNe | NSBC Encoded date : UTC 2019-06-02 00:52:05 Writing application : mkvmerge v33.1.0 ('Primrose') 64-bit Writing library : libebml v1.3.7 + libmatroska v1.5.0 / Lavf57.83.100 Copyright : NSBC Comment : NoNe | NSBC DATE_RECORDED : 2019 Video ID : 1 Format : AVC Format/Info : Advanced Video Codec Format profile : High@L4 Format settings : CABAC / 4 Ref Frames Format settings, CABAC : Yes Format settings, RefFrames : 4 frames Codec ID : V_MPEG4/ISO/AVC Duration : 40 min 14 s Bit rate : 2 096 kb/s Width : 1 920 pixels Height : 1 080 pixels Display aspect ratio : 16:9 Frame rate mode : Constant Frame rate : 29.970 (30000/1001) FPS Color space : YUV Chroma subsampling : 4:2:0 Bit depth : 8 bits Scan type : Progressive Bits/(Pixel*Frame) : 0.034 Stream size : 603 MiB (92%) Title : [NSBC] Writing library : Zencoder Video Encoding System Default : Yes Forced : No Color range : Limited Matrix coefficients : BT.709 VARIANT_BITRATE : 0 Audio ID : 2 Format : AAC LC Format/Info : Advanced Audio Codec Low Complexity Codec ID : A_AAC-2 Duration : 40 min 14 s Bit rate : 192 kb/s Channel(s) : 2 channels Channel layout : L R Sampling rate : 48.0 kHz Frame rate : 46.875 FPS (1024 SPF) Compression mode : Lossy Stream size : 55.1 MiB (8%) Title : [NSBC] Language : Japanese Default : Yes Forced : No VARIANT_BITRATE : 0 ```

File list

  • [NSBC] Tokyo Dokushin Danshi E07 [WEBDL] [1080p].mkv (659.2 MiB)