Fruits Basket S01E08 (2019) FUNIMATION DUBBED 1080P WEBRIP AAC2.0.H.264

Category:
Date:
2019-05-26 04:17 UTC
Submitter:
Seeders:
2
Information:
No information.
Leechers:
1
File size:
1.3 GiB
Completed:
56
Info hash:
f7e468f081efd5e9831759e3189a884dea60cc09
Format : Matroska Format version : Version 4 / Version 2 File size : 1.32 GiB Duration : 24 min 1 s Overall bit rate : 7 896 kb/s Movie name : Fruits Basket S01E08 See You When You Get Back Encoded date : UTC 2019-05-26 03:00:48 Writing application : mkvmerge v34.0.0 ('Sight and Seen') 64-bit Writing library : libebml v1.3.7 + libmatroska v1.5.0 Video ID : 1 Format : AVC Format/Info : Advanced Video Codec Format profile : High@L4 Format settings, CABAC : Yes Format settings, ReFrames : 4 frames Codec ID : V_MPEG4/ISO/AVC Duration : 24 min 0 s Bit rate : 8 000 kb/s Width : 1 920 pixels Height : 1 080 pixels Display aspect ratio : 16:9 Frame rate mode : Constant Frame rate : 23.976 (24000/1001) FPS Color space : YUV Chroma subsampling : 4:2:0 Bit depth : 8 bits Scan type : Progressive Bits/(Pixel*Frame) : 0.161 Stream size : 1.30 GiB (98%) Language : English Default : No Forced : No Audio ID : 2 Format : AAC Format/Info : Advanced Audio Codec Format profile : LC Codec ID : A_AAC Duration : 24 min 1 s Bit rate : 128 kb/s Channel(s) : 2 channels Channel positions : Front: L R Sampling rate : 48.0 kHz Frame rate : 46.875 FPS (1024 spf) Compression mode : Lossy Delay relative to video : -86 ms Stream size : 22.0 MiB (2%) Language : English Default : Yes Forced : No Text ID : 3 Format : UTF-8 Codec ID : S_TEXT/UTF8 Codec ID/Info : UTF-8 Plain Text Duration : 23 min 43 s Bit rate : 89 b/s Count of elements : 478 Stream size : 15.6 KiB (0%) Language : English Default : Yes Forced : No

File list

  • Fruits Basket S01E08 See You When You Get Back.mkv (1.3 GiB)