[Tess] Mirai no Mirai [BD 1920x1080 AVC Dual-Audio FLAC]

Category:
Date:
2019-05-25 20:16 UTC
Submitter:
Seeders:
2
Information:
No information.
Leechers:
0
File size:
10.4 GiB
Completed:
852
Info hash:
a4f5ec3363ad0f851981f53af5de5b0e0ce45a8e
Video Source: USBD Subs: USBD PGS Mediainfo: >General >Unique ID : 171249614308882394993117857254096216091 (0x80D579DC33031292A80C982C93BFA01B) >Complete name : [Tess] Mirai no Mirai [BD 1920x1080 AVC Dual-Audio FLAC][982AC2FA].mkv >Format : Matroska >Format version : Version 4 / Version 2 >File size : 10.4 GiB >Duration : 1 h 38 min >Overall bit rate mode : Variable >Overall bit rate : 15.1 Mb/s >Encoded date : UTC 2019-05-25 08:08:51 >Writing application : mkvmerge v34.0.0 ('Sight and Seen') 64-bit >Writing library : libebml v1.3.7 + libmatroska v1.5.0 > >Video >ID : 1 >Format : AVC >Format/Info : Advanced Video Codec >Format profile : High 10@L5.2 >Format settings : CABAC / 16 Ref Frames >Format settings, CABAC : Yes >Format settings, ReFrames : 16 frames >Codec ID : V_MPEG4/ISO/AVC >Duration : 1 h 38 min >Bit rate : 8 517 kb/s >Width : 1 920 pixels >Height : 1 080 pixels >Display aspect ratio : 16:9 >Frame rate mode : Constant >Frame rate : 23.976 (24000/1001) FPS >Color space : YUV >Chroma subsampling : 4:2:0 >Bit depth : 10 bits >Scan type : Progressive >Bits/(Pixel*Frame) : 0.171 >Stream size : 5.85 GiB (56%) >Writing library : x264 core 152 r2854 e9a5903 >Encoding settings : cabac=1 / ref=16 / deblock=1:-1:-1 / analyse=0x3:0x133 / me=umh / subme=11 / psy=1 / psy_rd=1.00:0.00 / mixed_ref=1 / me_range=32 / chroma_me=1 / trellis=2 / 8x8dct=1 / cqm=0 / deadzone=21,11 / fast_pskip=0 / chroma_qp_offset=-2 / threads=12 / lookahead_threads=6 / sliced_threads=0 / slices=4 / nr=0 / decimate=1 / interlaced=0 / bluray_compat=0 / constrained_intra=0 / bframes=16 / b_pyramid=2 / b_adapt=2 / b_bias=0 / direct=3 / weightb=1 / open_gop=0 / weightp=2 / keyint=250 / keyint_min=23 / scenecut=40 / intra_refresh=0 / rc_lookahead=250 / rc=crf / mbtree=1 / crf=16.0 / qcomp=0.60 / qpmin=0 / qpmax=69 / qpstep=4 / vbv_maxrate=720000 / vbv_bufsize=720000 / crf_max=0.0 / nal_hrd=none / filler=0 / ip_ratio=1.40 / aq=1:1.00 >Default : Yes >Forced : No >Color range : Limited >Color primaries : BT.709 >Transfer characteristics : BT.709 >Matrix coefficients : BT.709 > >Audio #1 >ID : 2 >Format : FLAC >Format/Info : Free Lossless Audio Codec >Codec ID : A_FLAC >Duration : 1 h 38 min >Bit rate mode : Variable >Bit rate : 3 272 kb/s >Channel(s) : 6 channels >Channel positions : Front: L C R, Side: L R, LFE >Sampling rate : 48.0 kHz >Frame rate : 10.417 FPS (4608 SPF) >Bit depth : 24 bits >Stream size : 2.25 GiB (22%) >Writing library : Lavf57.83.100 >Language : Japanese >Default : Yes >Forced : No > >Audio #2 >ID : 3 >Format : FLAC >Format/Info : Free Lossless Audio Codec >Codec ID : A_FLAC >Duration : 1 h 38 min >Bit rate mode : Variable >Bit rate : 3 282 kb/s >Channel(s) : 6 channels >Channel positions : Front: L C R, Side: L R, LFE >Sampling rate : 48.0 kHz >Frame rate : 10.417 FPS (4608 SPF) >Bit depth : 24 bits >Stream size : 2.26 GiB (22%) >Writing library : Lavf57.83.100 >Language : English >Default : No >Forced : No > >Text #1 >ID : 4 >Format : PGS >Muxing mode : zlib >Codec ID : S_HDMV/PGS >Codec ID/Info : Picture based subtitle format used on BDs/HD-DVDs >Duration : 1 h 35 min >Bit rate : 17.6 kb/s >Count of elements : 2298 >Stream size : 12.1 MiB (0%) >Language : English >Default : Yes >Forced : No > >Text #2 >ID : 5 >Format : PGS >Muxing mode : zlib >Codec ID : S_HDMV/PGS >Codec ID/Info : Picture based subtitle format used on BDs/HD-DVDs >Duration : 1 h 32 min >Bit rate : 31.9 kb/s >Count of elements : 2183 >Stream size : 21.2 MiB (0%) >Title : Dubtitles >Language : English >Default : No >Forced : No > >Menu >00:00:00.000 : en:Chapter 01 >00:02:39.409 : en:Chapter 02 >00:09:02.166 : en:Chapter 03 >00:13:13.959 : en:Chapter 04 >00:20:35.734 : en:Chapter 05 >00:25:47.045 : en:Chapter 06 >00:32:04.714 : en:Chapter 07 >00:41:28.527 : en:Chapter 08 >00:46:47.012 : en:Chapter 09 >00:54:56.001 : en:Chapter 10 >00:59:11.965 : en:Chapter 11 >01:05:50.237 : en:Chapter 12 >01:09:55.274 : en:Chapter 13 >01:16:36.842 : en:Chapter 14 >01:22:53.426 : en:Chapter 15 >01:30:06.901 : en:Chapter 16 >01:33:15.131 : en:Chapter 17 > >

File list

  • [Tess] Mirai no Mirai [BD 1920x1080 AVC Dual-Audio FLAC][982AC2FA].mkv (10.4 GiB)
A Ghibli-esque quality feature-length about hellspawn and family stress.
Thanks very much, Tess!