[NSBC] Tokyo Dokushin Danshi E06 [WEBDL] [1080p]

Category:
Date:
2019-05-25 19:27 UTC
Submitter:
Seeders:
1
Information:
TlNCQy50bw==
Leechers:
0
File size:
474.6 MiB
Completed:
606
Info hash:
ddcbfe7ed0becaf10fd340bf27cf87b46e5965fd
![POSTER](http://img.topddl.net/images/e420ff8362f244ec0acebe4694e05a71.jpg "") ![Thumbnails](http://img.topddl.net/images/ccfa0ac81347f424e37c384ce819a2bb.jpg "") ``` General Unique ID : 53310163225359156579766867891066370342 (0x281B29F9E9367A075F4952875C55F926) Complete name : [NSBC] Tokyo Dokushin Danshi E06 [WEBDL] [1080p].mkv Format : Matroska Format version : Version 4 File size : 475 MiB Duration : 40 min 24 s Overall bit rate : 1 642 kb/s Movie name : [NSBC] Tokyo Dokushin Danshi E06 [WEBDL] [1080p] Encoded date : UTC 2019-05-25 19:09:03 Writing application : mkvmerge v33.1.0 ('Primrose') 64-bit Writing library : libebml v1.3.7 + libmatroska v1.5.0 / Lavf57.83.100 Copyright : NSBC Comment : NoNe | NSBC DATE_RECORDED : 2019 ENCODEBY : NoNe | NSBC Video ID : 1 Format : AVC Format/Info : Advanced Video Codec Format profile : High@L4 Format settings : CABAC / 4 Ref Frames Format settings, CABAC : Yes Format settings, RefFrames : 4 frames Codec ID : V_MPEG4/ISO/AVC Duration : 40 min 24 s Bit rate : 1 448 kb/s Width : 1 920 pixels Height : 1 080 pixels Display aspect ratio : 16:9 Frame rate mode : Constant Frame rate : 29.970 (30000/1001) FPS Color space : YUV Chroma subsampling : 4:2:0 Bit depth : 8 bits Scan type : Progressive Bits/(Pixel*Frame) : 0.023 Stream size : 418 MiB (88%) Title : [NSBC] Writing library : Zencoder Video Encoding System Default : Yes Forced : No Color range : Limited Matrix coefficients : BT.709 VARIANT_BITRATE : 0 Audio ID : 2 Format : AAC LC Format/Info : Advanced Audio Codec Low Complexity Codec ID : A_AAC-2 Duration : 40 min 24 s Bit rate : 192 kb/s Channel(s) : 2 channels Channel layout : L R Sampling rate : 48.0 kHz Frame rate : 46.875 FPS (1024 SPF) Compression mode : Lossy Stream size : 55.3 MiB (12%) Title : [NSBC] Language : Japanese Default : Yes Forced : No VARIANT_BITRATE : 0 ```

File list

  • [NSBC] Tokyo Dokushin Danshi E06 [WEBDL] [1080p].mkv (474.6 MiB)