[ToishY] Summer Wars (2009) [1080p x264 10bit BD Dual Audio]

Category:
Date:
2019-05-13 10:44 UTC
Submitter:
Seeders:
1
Information:
No information.
Leechers:
0
File size:
7.3 GiB
Completed:
485
Info hash:
c1bcdec57aa21bc5b23d1b8b2135d610a6ad5b82
Resampled and changed bordersize/margin Frostii subs (+ some other minor changes) extracted from [this release](https://nyaa.si/view/1001869). Remuxed with [Beatrice-Raws](https://nyaa.si/view/886107) release. (kek wrong link; edited) Frostii ![Frostii](https://i.imgur.com/MOQcRbYl.jpg) ToishY ![ToishY](https://i.imgur.com/9JBB3hhl.jpg) ``` General Unique ID : 72766341297346971082620947232741310150 (0x36BE499DD8DE245D96887C8EE8B6BEC6) Complete name : [ToishY] Summer Wars (2009) [1080p x264 10bit BD Dual Audio] Format : Matroska Format version : Version 4 File size : 7.34 GiB Duration : 1 h 54 min Overall bit rate mode : Variable Overall bit rate : 9 201 kb/s Movie name : Summer Wars (2009) Encoded date : UTC 2019-05-13 09:11:58 Writing application : mkvmerge v28.2.0 ('The Awakening') 64-bit Writing library : libebml v1.3.6 + libmatroska v1.4.9 Attachments : PreciousSansDemiBold.ttf / PreciousSansDemiBoldItalic.ttf Video ID : 1 Format : AVC Format/Info : Advanced Video Codec Format profile : High 10@L5 Format settings : CABAC / 4 Ref Frames Format settings, CABAC : Yes Format settings, RefFrames : 4 frames Codec ID : V_MPEG4/ISO/AVC Duration : 1 h 54 min Bit rate : 6 975 kb/s Width : 1 920 pixels Height : 1 080 pixels Display aspect ratio : 16:9 Frame rate mode : Constant Frame rate : 23.976 (24000/1001) FPS Color space : YUV Chroma subsampling : 4:2:0 Bit depth : 10 bits Scan type : Progressive Bits/(Pixel*Frame) : 0.140 Stream size : 5.56 GiB (76%) Title : BDRip Writing library : x264 core 148 (DJATOM's build) Encoding settings : cabac=1 / ref=4 / deblock=1:1:-1 / analyse=0x3:0x113 / me=umh / subme=9 / psy=1 / fade_compensate=0.00 / psy_rd=1.00:0.00 / mixed_ref=1 / me_range=32 / chroma_me=1 / trellis=2 / 8x8dct=1 / cqm=0 / deadzone=21,11 / fast_pskip=1 / chroma_qp_offset=-2 / threads=12 / lookahead_threads=2 / sliced_threads=0 / nr=0 / decimate=1 / interlaced=0 / bluray_compat=0 / constrained_intra=0 / bframes=9 / b_pyramid=2 / b_adapt=2 / b_bias=0 / direct=1 / weightb=1 / open_gop=0 / weightp=2 / keyint=250 / keyint_min=23 / scenecut=40 / intra_refresh=0 / rc=crf / mbtree=0 / crf=15.0000 / qcomp=0.72 / qpmin=0 / qpmax=81 / qpstep=4 / ip_ratio=1.40 / pb_ratio=1.30 / aq=1:0.85 Language : Japanese Default : Yes Forced : No Color range : Limited Color primaries : BT.709 Transfer characteristics : BT.709 Matrix coefficients : BT.709 Audio #1 ID : 2 Format : FLAC Format/Info : Free Lossless Audio Codec Codec ID : A_FLAC Duration : 1 h 54 min Bit rate mode : Variable Bit rate : 574 kb/s Channel(s) : 2 channels Channel layout : L R Sampling rate : 48.0 kHz Frame rate : 11.719 FPS (4096 SPF) Bit depth : 16 bits Compression mode : Lossless Stream size : 469 MiB (6%) Title : FLAC Writing library : libFLAC 1.3.1 (UTC 2014-11-25) Language : Japanese Default : Yes Forced : No Audio #2 ID : 3 Format : FLAC Format/Info : Free Lossless Audio Codec Codec ID : A_FLAC Duration : 1 h 54 min Bit rate mode : Variable Bit rate : 1 288 kb/s Channel(s) : 6 channels Channel layout : L R C LFE Ls Rs Sampling rate : 48.0 kHz Frame rate : 11.719 FPS (4096 SPF) Bit depth : 16 bits Compression mode : Lossless Stream size : 1.03 GiB (14%) Title : FLAC 5.1 Writing library : libFLAC 1.3.1 (UTC 2014-11-25) Language : Japanese Default : No Forced : No Audio #3 ID : 4 Format : AAC LC SBR Format/Info : Advanced Audio Codec Low Complexity with Spectral Band Replication Commercial name : HE-AAC Format settings : Explicit Codec ID : A_AAC-2 Duration : 1 h 54 min Bit rate : 171 kb/s Channel(s) : 6 channels Channel layout : C L R Ls Rs LFE Sampling rate : 48.0 kHz Frame rate : 23.438 FPS (2048 SPF) Compression mode : Lossy Delay relative to video : 40 ms Stream size : 140 MiB (2%) Title : AAC Language : Japanese Default : No Forced : No Audio #4 ID : 5 Format : AAC LC SBR Format/Info : Advanced Audio Codec Low Complexity with Spectral Band Replication Commercial name : HE-AAC Format settings : Explicit Codec ID : A_AAC-2 Duration : 1 h 54 min Bit rate : 172 kb/s Channel(s) : 6 channels Channel layout : C L R Ls Rs LFE Sampling rate : 48.0 kHz Frame rate : 23.438 FPS (2048 SPF) Compression mode : Lossy Delay relative to video : 40 ms Stream size : 140 MiB (2%) Title : AAC Language : English Default : No Forced : No Text #1 ID : 6 Format : ASS Codec ID : S_TEXT/ASS Codec ID/Info : Advanced Sub Station Alpha Duration : 1 h 47 min Bit rate : 131 b/s Count of elements : 1844 Compression mode : Lossless Stream size : 104 KiB (0%) Title : [English] ToishY Language : English Default : Yes Forced : No Text #2 ID : 7 Format : PGS Muxing mode : zlib Codec ID : S_HDMV/PGS Codec ID/Info : Picture based subtitle format used on BDs/HD-DVDs Duration : 1 h 52 min Bit rate : 44.3 kb/s Count of elements : 3796 Stream size : 35.6 MiB (0%) Title : [Japanese] PGS Language : Japanese Default : No Forced : No ``` Also includes chapters but I hit the limits on amount of characters -_-

File list

  • [ToishY] Summer Wars (2009) [1080p x264 10bit BD Dual Audio].mkv (7.3 GiB)