[NSBC] Radiation House E05 [WEBDL] [1080p]

Category:
Date:
2019-05-07 19:37 UTC
Submitter:
Seeders:
15
Information:
TlNCQy50bw==
Leechers:
3
File size:
1009.9 MiB
Completed:
723
Info hash:
2e0c74acff47db97f9f1b0dd8fdb54053177a004
> ### `Subtitle English & Indonesian` > ### Subs on [Subscene](https://subscene.com/subtitles/radiation-house-rajieshon-hausu) ![POSTER](http://img.topddl.net/images/359aa64d3424621160253a506e922922.jpg "") ``` General Unique ID : 259802202112768945776924942749538746740 (0xC374158564B9B7A3CE9E1768EB948174) Complete name : [NSBC] Radiation House E05 [WEBDL] [1080p].mkv Format : Matroska Format version : Version 4 File size : 1 010 MiB Duration : 45 min 50 s Overall bit rate : 3 081 kb/s Movie name : [NSBC] Radiation House E05 [WEBDL] [1080p] Encoded by : NoNe | NSBC Encoded date : UTC 2019-05-07 19:33:42 Writing application : mkvmerge v33.1.0 ('Primrose') 64-bit Writing library : libebml v1.3.7 + libmatroska v1.5.0 / Lavf57.83.100 Copyright : NSBC Comment : NoNe | NSBC DATE_RECORDED : 2019 Video ID : 1 Format : AVC Format/Info : Advanced Video Codec Format profile : High@L4 Format settings : CABAC / 4 Ref Frames Format settings, CABAC : Yes Format settings, RefFrames : 4 frames Codec ID : V_MPEG4/ISO/AVC Duration : 45 min 49 s Bit rate : 2 917 kb/s Width : 1 920 pixels Height : 1 080 pixels Display aspect ratio : 16:9 Frame rate mode : Constant Frame rate : 24.000 FPS Color space : YUV Chroma subsampling : 4:2:0 Bit depth : 8 bits Scan type : Progressive Bits/(Pixel*Frame) : 0.059 Stream size : 956 MiB (95%) Title : [NSBC] Writing library : x264 core 152 r2851 ba24899 Encoding settings : cabac=1 / ref=4 / deblock=1:0:0 / analyse=0x3:0x113 / me=hex / subme=8 / psy=1 / psy_rd=1.00:0.00 / mixed_ref=1 / me_range=16 / chroma_me=1 / trellis=2 / 8x8dct=1 / cqm=0 / deadzone=21,11 / fast_pskip=1 / chroma_qp_offset=-2 / threads=10 / lookahead_threads=1 / sliced_threads=0 / nr=0 / decimate=1 / interlaced=0 / bluray_compat=0 / constrained_intra=0 / bframes=0 / weightp=2 / keyint=72 / keyint_min=7 / scenecut=40 / intra_refresh=0 / rc_lookahead=50 / rc=cbr / mbtree=1 / bitrate=2917 / ratetol=1.0 / qcomp=0.90 / qpmin=3 / qpmax=51 / qpstep=8 / vbv_maxrate=2917 / vbv_bufsize=11668 / nal_hrd=none / filler=0 / ip_ratio=1.40 / aq=1:1.00 Default : Yes Forced : No VARIANT_BITRATE : 0 Audio ID : 2 Format : AAC LC Format/Info : Advanced Audio Codec Low Complexity Codec ID : A_AAC-2 Duration : 45 min 50 s Bit rate : 162 kb/s Channel(s) : 2 channels Channel layout : L R Sampling rate : 44.1 kHz Frame rate : 43.066 FPS (1024 SPF) Compression mode : Lossy Delay relative to video : 46 ms Stream size : 53.0 MiB (5%) Title : [NSBC] Language : Japanese Default : Yes Forced : No VARIANT_BITRATE : 0 Text #1 ID : 3 Format : UTF-8 Codec ID : S_TEXT/UTF8 Codec ID/Info : UTF-8 Plain Text Duration : 45 min 44 s Bit rate : 54 b/s Count of elements : 611 Stream size : 18.4 KiB (0%) Title : [NSBC] [EN] Language : English Default : Yes Forced : No Text #2 ID : 4 Format : UTF-8 Codec ID : S_TEXT/UTF8 Codec ID/Info : UTF-8 Plain Text Duration : 45 min 45 s Bit rate : 54 b/s Count of elements : 611 Stream size : 18.2 KiB (0%) Title : [NSBC] [ID] Language : Indonesian Default : No Forced : No ```

File list

  • [NSBC] Radiation House E05 [WEBDL] [1080p].mkv (1009.9 MiB)