[NSBC] Tokyo Dokushin Danshi E03 [WEBDL] [1080p]

Category:
Date:
2019-05-04 21:57 UTC
Submitter:
Seeders:
0
Information:
TlNCQy50bw==
Leechers:
3
File size:
850.9 MiB
Completed:
611
Info hash:
bf1a130458bd5011e2737f7011e5997c4ee61200
![POSTER](http://img.topddl.net/images/e420ff8362f244ec0acebe4694e05a71.jpg "") ![Thumbnails](http://img.topddl.net/images/0fe1a44bd7b82d5969101eeb20f742ab.jpg "") ``` General Unique ID : 63401619594147435559519490230411930327 (0x2FB2B5306884EAE9E75711E908392AD7) Complete name : [NSBC] Tokyo Dokushin Danshi E03 [WEBDL] [1080p].mkv Format : Matroska Format version : Version 4 File size : 851 MiB Duration : 40 min 24 s Overall bit rate : 2 944 kb/s Movie name : [NSBC] Tokyo Dokushin Danshi E03 [WEBDL] [1080p] Encoded date : UTC 2019-05-04 21:47:38 Writing application : mkvmerge v33.1.0 ('Primrose') 64-bit Writing library : libebml v1.3.7 + libmatroska v1.5.0 / Lavf57.83.100 Comment : NoNe | NSBC DATE_RECORDED : 2019 Video ID : 1 Format : AVC Format/Info : Advanced Video Codec Format profile : High@L4 Format settings : CABAC / 4 Ref Frames Format settings, CABAC : Yes Format settings, RefFrames : 4 frames Codec ID : V_MPEG4/ISO/AVC Duration : 40 min 24 s Bit rate : 2 750 kb/s Width : 1 920 pixels Height : 1 080 pixels Display aspect ratio : 16:9 Frame rate mode : Constant Frame rate : 29.970 (30000/1001) FPS Color space : YUV Chroma subsampling : 4:2:0 Bit depth : 8 bits Scan type : Progressive Bits/(Pixel*Frame) : 0.044 Stream size : 795 MiB (93%) Title : [NSBC] Writing library : Zencoder Video Encoding System Default : Yes Forced : No Color range : Limited Matrix coefficients : BT.709 VARIANT_BITRATE : 0 Audio ID : 2 Format : AAC LC Format/Info : Advanced Audio Codec Low Complexity Codec ID : A_AAC-2 Duration : 40 min 24 s Bit rate : 192 kb/s Channel(s) : 2 channels Channel layout : L R Sampling rate : 48.0 kHz Frame rate : 46.875 FPS (1024 SPF) Compression mode : Lossy Stream size : 55.4 MiB (7%) Title : [NSBC] Language : Japanese Default : Yes Forced : No VARIANT_BITRATE : 0 ```

File list

  • [NSBC] Tokyo Dokushin Danshi E03 [WEBDL] [1080p].mkv (850.9 MiB)