[PTBR] BD Watamote Watashi ga Motenai no wa Dou Kangaete mo Omaera ga Warui!

Category:
Date:
2019-05-04 03:27 UTC
Submitter:
Seeders:
2
Information:
No information.
Leechers:
0
File size:
4.2 GiB
Completed:
36
Info hash:
dcbe98b7d41195d669e4f81ce37b5a591d64aaec
Coloquei a Legenda da AWH no release da Tonoshi sub pois tem uma imagem bem melhor o release deles graças ao encode que eles fizeram. Divirta-se e não se esqueça de semear. :) Agradecimento especial ao AWH! <3 MediaInfo General Unique ID : 180408074777055759983535346039290598143 (0x87B954D2D84D67BCB6A2A4B1F43012FF) Complete name : I:\Windows 7\Meus videos 2\Punch!!!\Watashi ga Motenai no wa Dou Kangaete mo Omaera ga Warui!\Watamote Blu-Ray_01.mkv Format : Matroska Format version : Version 4 File size : 345 MiB Duration : 23 min 50 s Overall bit rate mode : Variable Overall bit rate : 2 022 kb/s Movie name : [voss] Noein (01/24) Blue Snow Encoded date : UTC 2016-09-05 14:45:01 Writing application : mkvmerge v7.0.0 ('Where We Going') 64bit built on Jun 9 2014 15:16:27 Writing library : libebml v1.3.0 + libmatroska v1.4.1 Attachments : SetFireToTheRain.ttf / ARCENA.ttf / ARLRDBD.TTF / barrer.ttf / Barthowheel_Regular.ttf / BRLNSDB.TTF / Candarab.ttf / Candaraz.ttf / corbelb.ttf / KoukakuRegios.ttf / SHANNOB.TTF / AdobeGothicStd-Bold.otf / AdobeGothicStd-Bold-Jintai.ttf / adrip1.ttf / advent.ttf / akbar.TTF / ALBINO_.TTF / ANA-ONEIROPARMENI82.TTF / Anna.ttf / A-OTF Folk Pro R.ttf / A-OTF Gothic MB101 Pro B Bold.ttf / A-OTF Kaisho MCBK1 Pro.ttf / A-OTF Kakumin Pro Bold.ttf / A-OTF Kyoukasho ICA Pro.ttf / A-OTF MidashiMinMA31.ttf / A-OTF-BokutohNStd-Medium.otf / A-OTF-Jun34Pro-Medium-Jinrui.ttf / A-OTF-Jun34Pro-Medium-Kami.ttf / A-OTF-KumoyaStd-Regular-Watamote.ttf / Arial Condensed Bold.ttf / arial.ttf / arialbd.ttf / arialbi.ttf / ariali.ttf / ARIALN.TTF / ARIALNB.TTF / ARIALNBI.TTF / ARIALNI.TTF / ariblk.ttf / AveriaSerif-Bold.ttf / AveriaSerif-Light.ttf / baby dont worry bout it.ttf / badabb.ttf / Bairam.ttf / Bakuman Shinn Medium.ttf / BeeMarkerInk.TTF / Bitstream Arrus Black BT.ttf / Bloodyslime.TTF / Bolide-Regular.ttf / bradhit0.TTF / BRADHITC.TTF / BRADY.TTF / Brush Strokes.ttf / BSOD.ttf / calibri.ttf / calibrib.ttf / CantoriaMTStd-SemiBold.otf / ChalkDust.ttf / Chuu2-next.ttf / corbel.ttf / DCAi-W5.ttf / DCPRyuuMoji-W12.ttf / DFGHSGothic-AnoHana.ttf / DFHorrorB-W5.ttf / DFKanTeiRyu-XB.ttf / DFMaruMoji-W3.ttf / DFPGothicP-W2-AW.ttf / DFPHSGothic-W7-CP.ttf / DFPLeiSho-SB.ttf / DFPMaru-Md-Kami.ttf / DFPMaruMoji-CP-W9.ttf / DFPMincho-SU-Nobuna.ttf / DFPTFLeiSho-W7-Denpa.ttf / DFSoGei-W5.ttf / distorted watamote.ttf / DiverdaSansCom-Medium.ttf / DK Crayon Crumble.ttf / draftingboardb.ttf / edosz.ttf / EienIsAFaggot.ttf / EienStinxSoBad.ttf / elmer alt.ttf / elmer.ttf / erasdus0.ttf / FAKTOS.TTF / Folk-Heavy.ttf / FOT Rodin Pro UB.ttf / FOT-HummingStd-Accel-B.ttf / FOT-NewCezannePro-B-Watamote.ttf / FOT-NewCezannePro-DB-Watamote.ttf / FuckingEien.ttf / GEEKRG.TTF / gothic bold.ttf / gothic regular.ttf / GothicMB101Pr5-Medium-Watamote.ttf / gothicw7-tr.ttf / Gravitate BRK.ttf / GyoSho Ep Son.ttf / HannaHandwriting.ttf / HeiseiMaruGoStd-W4.ttf / HeiseiMaruGoStd-W8-CP.ttf / Henn.ttf / HGPKakuPopTai-CP.ttf / Hira v2.ttf / IwaKaiPro-Db-AW.ttf / IwaNGoPro-Md-AW.ttf / IwaOMinPro.ttf / IwaOMinPro-Bd-Fate.ttf / IwaOMinPro-Hv-Fate.ttf / JAPAB.TTF / Josschrift.ttf / Kaisho MCBK1 Pro v999.ttf / KITCHENPOLICE.TTF / KozGoPr6n-B.ttf / KozGoPr6N-H.ttf / KozGoPr6n-M.ttf / KozGoPr6n-R.ttf / KozGoProH-Madoka.ttf / KozMinPr6N-H.ttf / KozMinPro-Medium.ttf / LEHN026.ttf / LEHN031.TTF / LeviReBrushed.ttf / LucidaSansStd.otf / Maid ElegantoPro-UB.ttf / Maru v999.ttf / MaruSBold-TR.ttf / Passing Notes.ttf / pixelmix.ttf / QuattrocentoSans-Bold.ttf / QuattrocentoSans-BoldItalic.ttf / RockBiter.ttf / S2G Moon.ttf / S2GPNagurigaki.ttf / Samurai-Gosick.ttf / Senran gothic ep.ttf / SilkRoad.ttf / Sketch Coursive.ttf / Station.ttf / Tanuki Permanent Marker.ttf / TariStick.ttf / THERIFV2.TTF / Watamote Tennis Club BG.ttf / Watamote Tennis Club.ttf / Yryr minc R.ttf / ZOMBIE.TTF Video ID : 4 Format : AVC Format/Info : Advanced Video Codec Format profile : High 10@L5.1 Format settings : CABAC / 16 Ref Frames Format settings, CABAC : Yes Format settings, ReFrames : 16 frames Codec ID : V_MPEG4/ISO/AVC Duration : 23 min 50 s Bit rate : 1 157 kb/s Width : 1 920 pixels Height : 1 080 pixels Display aspect ratio : 16:9 Frame rate mode : Constant Frame rate : 23.976 (23976/1000) FPS Color space : YUV Chroma subsampling : 4:2:0 Bit depth : 10 bits Scan type : Progressive Bits/(Pixel*Frame) : 0.023 Stream size : 197 MiB (57%) Writing library : x264 core 130 r2273 b3065e6 Encoding settings : cabac=1 / ref=16 / deblock=1:1:1 / analyse=0x3:0x133 / me=umh / subme=10 / psy=1 / psy_rd=0.40:0.00 / mixed_ref=1 / me_range=24 / chroma_me=1 / trellis=2 / 8x8dct=1 / cqm=0 / deadzone=21,11 / fast_pskip=1 / chroma_qp_offset=-2 / threads=12 / lookahead_threads=3 / sliced_threads=0 / nr=0 / decimate=1 / interlaced=0 / bluray_compat=0 / constrained_intra=0 / bframes=10 / b_pyramid=2 / b_adapt=2 / b_bias=0 / direct=3 / weightb=1 / open_gop=0 / weightp=2 / keyint=250 / keyint_min=23 / scenecut=40 / intra_refresh=0 / rc_lookahead=60 / rc=crf / mbtree=1 / crf=23.0 / qcomp=0.60 / qpmin=0 / qpmax=81 / qpstep=4 / ip_ratio=1.40 / aq=1:0.60 Language : English Default : Yes Forced : No Audio ID : 1 Format : FLAC Format/Info : Free Lossless Audio Codec Codec ID : A_FLAC Duration : 23 min 50 s Bit rate mode : Variable Bit rate : 690 kb/s Channel(s) : 2 channels Channel layout : L R Sampling rate : 48.0 kHz Frame rate : 11.719 FPS (4096 SPF) Bit depth : 16 bits Compression mode : Lossless Stream size : 118 MiB (34%) Title : FLAC Writing library : libFLAC 1.3.0 (UTC 2013-05-26) Language : Japanese Default : Yes Forced : No Text #1 ID : 2 Format : ASS Codec ID : S_TEXT/ASS Codec ID/Info : Advanced Sub Station Alpha Duration : 23 min 48 s Bit rate : 15.7 kb/s Count of elements : 22326 Compression mode : Lossless Stream size : 2.67 MiB (1%) Title : Tanoshi Default : No Forced : No Text #2 ID : 3 Format : ASS Codec ID : S_TEXT/ASS Codec ID/Info : Advanced Sub Station Alpha Duration : 23 min 48 s Bit rate : 978 b/s Count of elements : 1793 Compression mode : Lossless Stream size : 171 KiB (0%) Title : AHW PTBR Language : Portuguese Default : Yes Forced : No Menu 00:00:00.000 : :Vorspann 00:02:23.990 : :Opening 00:03:54.000 : :Teil A 00:11:20.030 : :Teil B 00:22:05.180 : :Ending 00:23:35.010 : :Preview

File list

  • Watashi ga Motenai no wa Dou Kangaete mo Omaera ga Warui!
    • Watamote Blu-Ray_01.mkv (344.6 MiB)
    • Watamote Blu-Ray_02.mkv (354.1 MiB)
    • Watamote Blu-Ray_03.ass (241.1 KiB)
    • Watamote Blu-Ray_03.mkv (340.8 MiB)
    • Watamote Blu-Ray_04.mkv (454.3 MiB)
    • Watamote Blu-Ray_05.mkv (351.8 MiB)
    • Watamote Blu-Ray_06.mkv (387.0 MiB)
    • Watamote Blu-Ray_07.mkv (312.0 MiB)
    • Watamote Blu-Ray_08.mkv (353.6 MiB)
    • Watamote Blu-Ray_09.mkv (362.0 MiB)
    • Watamote Blu-Ray_10.mkv (345.6 MiB)
    • Watamote Blu-Ray_11.ass (39.6 KiB)
    • Watamote Blu-Ray_11.mkv (331.0 MiB)
    • Watamote Blu-Ray_12.mkv (327.8 MiB)
    • folder.jpg (472.3 KiB)

PortSubs (uploader)

User
Fique de seed após terminar de baixar, Watamote nessa qualidade em ptbr só tem aqui.