[PTBR] Durarara!!x2 Shou BD

Category:
Date:
2019-05-04 03:18 UTC
Submitter:
Seeders:
2
Information:
No information.
Leechers:
0
File size:
4.6 GiB
Completed:
28
Info hash:
6d20e6e8f4c2bef4646d52a7c6db205658457fa4
BD de Durarara!!x2 Shou usando como base a Tradução da MDAN em conjunto com o KrK e Types da Owari!! Não se esqueçam de instalar todas as fonts (todas as fonts q uso no win10.rar) no seu PC para a legenda ficar bonita! Divirta-se e não se esqueça de semear. :) Agradecimento especial ao MDAN e a OWARI pela tradu, types e KrK original da ver. TV!! <3 MediaInfo General Unique ID : 176086519708491214758075251049569610733 (0x847907B559F08B0E8D458E41356A6BED) Complete name : I:\Windows 7\Meus videos 2\Durarara!!x2 Shou\Durarara!!x2 Shou Blu-Ray_01.mkv Format : Matroska Format version : Version 4 File size : 418 MiB Duration : 24 min 1 s Overall bit rate mode : Variable Overall bit rate : 2 430 kb/s Encoded date : UTC 2016-07-01 01:15:56 Writing application : mkvmerge v7.0.0 ('Where We Going') 64bit built on Jun 9 2014 15:16:27 Writing library : libebml v1.3.0 + libmatroska v1.4.1 Attachments : plantc_1.ttf Video ID : 2 Format : AVC Format/Info : Advanced Video Codec Format profile : High 10@L5.1 Format settings : CABAC / 16 Ref Frames Format settings, CABAC : Yes Format settings, ReFrames : 16 frames Codec ID : V_MPEG4/ISO/AVC Duration : 24 min 1 s Bit rate : 1 754 kb/s Width : 1 920 pixels Height : 1 080 pixels Display aspect ratio : 16:9 Frame rate mode : Constant Frame rate : 23.976 (23976/1000) FPS Color space : YUV Chroma subsampling : 4:2:0 Bit depth : 10 bits Scan type : Progressive Bits/(Pixel*Frame) : 0.035 Stream size : 301 MiB (72%) Writing library : x264 core 130 r2273 b3065e6 Encoding settings : cabac=1 / ref=16 / deblock=1:1:1 / analyse=0x3:0x133 / me=umh / subme=10 / psy=1 / psy_rd=0.40:0.00 / mixed_ref=1 / me_range=24 / chroma_me=1 / trellis=2 / 8x8dct=1 / cqm=0 / deadzone=21,11 / fast_pskip=0 / chroma_qp_offset=-2 / threads=12 / lookahead_threads=3 / sliced_threads=0 / nr=0 / decimate=1 / interlaced=0 / bluray_compat=0 / constrained_intra=0 / bframes=10 / b_pyramid=2 / b_adapt=2 / b_bias=0 / direct=3 / weightb=1 / open_gop=0 / weightp=2 / keyint=250 / keyint_min=23 / scenecut=40 / intra_refresh=0 / rc_lookahead=60 / rc=crf / mbtree=1 / crf=22.0 / qcomp=0.60 / qpmin=0 / qpmax=81 / qpstep=4 / ip_ratio=1.40 / aq=1:0.60 Language : English Default : Yes Forced : No Audio ID : 5 Format : FLAC Format/Info : Free Lossless Audio Codec Codec ID : A_FLAC Duration : 24 min 1 s Bit rate mode : Variable Bit rate : 669 kb/s Channel(s) : 2 channels Channel layout : L R Sampling rate : 48.0 kHz Frame rate : 10.417 FPS (4608 SPF) Bit depth : 16 bits Compression mode : Lossless Delay relative to video : 83 ms Stream size : 115 MiB (28%) Title : Stereo Default : Yes Forced : No Text #1 ID : 1 Format : ASS Codec ID : S_TEXT/ASS Codec ID/Info : Advanced Sub Station Alpha Duration : 23 min 56 s Bit rate : 194 b/s Count of elements : 378 Compression mode : Lossless Stream size : 34.1 KiB (0%) Title : Owari sub BD Default : No Forced : No Text #2 ID : 3 Format : ASS Codec ID : S_TEXT/ASS Codec ID/Info : Advanced Sub Station Alpha Duration : 23 min 57 s Bit rate : 3 849 b/s Count of elements : 4441 Compression mode : Lossless Stream size : 676 KiB (0%) Title : ENG by Glue sub BD Default : No Forced : No Text #3 ID : 4 Format : ASS Codec ID : S_TEXT/ASS Codec ID/Info : Advanced Sub Station Alpha Duration : 23 min 59 s Bit rate : 129 b/s Count of elements : 346 Compression mode : Lossless Stream size : 22.7 KiB (0%) Title : PT BR by Mike Default : Yes Forced : No Menu 00:00:00.033 : :Introdução 00:00:21.063 : :Abertura 00:02:11.006 : :Parte A 00:11:42.050 : :Parte B 00:22:15.020 : :Encerramento 00:23:45.070 : :Prévia

File list

  • Durarara!!x2 Shou
    • Durarara!!x2 Shou Blu-Ray_01.mkv (417.5 MiB)
    • Durarara!!x2 Shou Blu-Ray_02.mkv (342.0 MiB)
    • Durarara!!x2 Shou Blu-Ray_03.mkv (335.4 MiB)
    • Durarara!!x2 Shou Blu-Ray_04.mkv (355.3 MiB)
    • Durarara!!x2 Shou Blu-Ray_05.mkv (386.2 MiB)
    • Durarara!!x2 Shou Blu-Ray_06.mkv (301.9 MiB)
    • Durarara!!x2 Shou Blu-Ray_07.ass (34.5 KiB)
    • Durarara!!x2 Shou Blu-Ray_07.mkv (346.5 MiB)
    • Durarara!!x2 Shou Blu-Ray_08.mkv (321.9 MiB)
    • Durarara!!x2 Shou Blu-Ray_09.mkv (365.3 MiB)
    • Durarara!!x2 Shou Blu-Ray_10.mkv (384.6 MiB)
    • Durarara!!x2 Shou Blu-Ray_11.mkv (366.7 MiB)
    • Durarara!!x2 Shou Blu-Ray_12.mkv (332.6 MiB)
    • Durarara!!x2 Shou Blu-Ray_4.5.mkv (172.8 MiB)
    • folder.jpg (240.7 KiB)
    • folder2.jpg (30.1 KiB)
    • todas as fonts q uso no win10.rar (263.6 MiB)

PortSubs (uploader)

User
Fique de seed após terminar de baixar, Durarara Season 2 em BD só tem aqui.