[NSBC] Shousetsu Ou E02 [WEBDL] [1080p]

Category:
Date:
2019-04-28 23:59 UTC
Submitter:
Seeders:
3
Information:
TlNCQy50bw==
Leechers:
0
File size:
520.7 MiB
Completed:
272
Info hash:
3709a7f66227fa223177326903ca2532cb479c4a
> ### `Subtitle English & Indonesian` > ### Subs on [Subscene](https://subscene.com/subtitles/fiction-king-shosetsu-o) ![POSTER](http://img.topddl.net/images/9f8ac30f3f68c9c24e34c76fe89a7085.png "") ![Thumbnails](http://img.topddl.net/images/7375262d2087aed3f1d9d3eb73395828.jpg "") ``` General Unique ID : 103040291004822402206535885739405014232 (0x4D84D693C7E338DF8ACB6CC34126F4D8) Complete name : [NSBC] Shousetsu Ou E02 [WEBDL] [1080p].mkv Format : Matroska Format version : Version 4 File size : 521 MiB Duration : 23 min 1 s Overall bit rate : 3 162 kb/s Movie name : [NSBC] Shousetsu Ou E02 [WEBDL] [1080p] Encoded date : UTC 2019-04-28 23:54:35 Writing application : mkvmerge v33.1.0 ('Primrose') 64-bit Writing library : libebml v1.3.7 + libmatroska v1.5.0 / Lavf57.83.100 Comment : NoNe | NSBC DATE_RECORDED : 2019 Video ID : 1 Format : AVC Format/Info : Advanced Video Codec Format profile : High@L4 Format settings : CABAC / 4 Ref Frames Format settings, CABAC : Yes Format settings, RefFrames : 4 frames Codec ID : V_MPEG4/ISO/AVC Duration : 23 min 1 s Bit rate : 3 000 kb/s Width : 1 920 pixels Height : 1 080 pixels Display aspect ratio : 16:9 Frame rate mode : Constant Frame rate : 24.000 FPS Color space : YUV Chroma subsampling : 4:2:0 Bit depth : 8 bits Scan type : Progressive Bits/(Pixel*Frame) : 0.060 Stream size : 494 MiB (95%) Title : [NSBC] Writing library : x264 core 152 r2851 ba24899 Encoding settings : cabac=1 / ref=4 / deblock=1:0:0 / analyse=0x3:0x113 / me=hex / subme=8 / psy=1 / psy_rd=1.00:0.00 / mixed_ref=1 / me_range=16 / chroma_me=1 / trellis=2 / 8x8dct=1 / cqm=0 / deadzone=21,11 / fast_pskip=1 / chroma_qp_offset=-2 / threads=10 / lookahead_threads=1 / sliced_threads=0 / nr=0 / decimate=1 / interlaced=0 / bluray_compat=0 / constrained_intra=0 / bframes=0 / weightp=2 / keyint=72 / keyint_min=7 / scenecut=40 / intra_refresh=0 / rc_lookahead=50 / rc=cbr / mbtree=1 / bitrate=3000 / ratetol=1.0 / qcomp=0.90 / qpmin=3 / qpmax=51 / qpstep=8 / vbv_maxrate=3000 / vbv_bufsize=12000 / nal_hrd=none / filler=0 / ip_ratio=1.40 / aq=1:1.00 Default : Yes Forced : No VARIANT_BITRATE : 0 Audio ID : 2 Format : AAC LC Format/Info : Advanced Audio Codec Low Complexity Codec ID : A_AAC-2 Duration : 23 min 1 s Bit rate : 162 kb/s Channel(s) : 2 channels Channel layout : L R Sampling rate : 44.1 kHz Frame rate : 43.066 FPS (1024 SPF) Compression mode : Lossy Delay relative to video : 46 ms Stream size : 26.7 MiB (5%) Title : [NSBC] Language : Japanese Default : Yes Forced : No VARIANT_BITRATE : 0 Text #1 ID : 3 Format : UTF-8 Codec ID : S_TEXT/UTF8 Codec ID/Info : UTF-8 Plain Text Duration : 23 min 1 s Bit rate : 63 b/s Count of elements : 381 Stream size : 10.7 KiB (0%) Title : [NSBC] [EN] Language : English Default : Yes Forced : No Text #2 ID : 4 Format : UTF-8 Codec ID : S_TEXT/UTF8 Codec ID/Info : UTF-8 Plain Text Duration : 23 min 1 s Bit rate : 63 b/s Count of elements : 381 Stream size : 10.8 KiB (0%) Title : [NSBC] [ID] Language : Indonesian Default : No Forced : No ```

File list

  • [NSBC] Shousetsu Ou E02 [WEBDL] [1080p].mkv (520.7 MiB)