[pip3] Mein Nachbar Totoro / Tonari no Totoro [BDRIP - MULTi GER/DE/EN/JAP/PL SUB - 1080p]

Category:
Date:
2019-04-25 22:29 UTC
Submitter:
Seeders:
1
Information:
No information.
Leechers:
0
File size:
10.7 GiB
Completed:
39
Info hash:
a34227e8b9aa82f3e8eb8dd9a0b1bfc27aa9260e
I know it's dumb to apply scene tagging rules when I'm on p2p and only muxing and retiming several sources (especially if I'm mixing the POLiSH and GERMAN rulesets), but let me have my fun^^ Sources: My.Neighbor.Totoro.1988.1080p.BluRay.x264.Tetra.Audio.AC3-HDChina.mkv Mein.Nachbar.Totoro.1988.German.DL.1080p.BluRay.x264-RSG.mkv Polish Subs: Madao Way German Subs: Official via Opensubtitles General Unique ID : 3964455551501383801951206442669083149 (0x2FB86BFEBCA2A7263559AB2499E8A0D) Complete name : Mein.Nachbar.Totoro.My.Neighbor.Totoro.1988.1080p.BluRay.x264.MULTi.AC3-pip3.mkv Format : Matroska Format version : Version 4 File size : 10.7 GiB Duration : 1 h 26 min Overall bit rate : 17.7 Mb/s Encoded date : UTC 2019-04-25 21:17:21 Writing application : mkvmerge v33.1.0 ('Primrose') 64-bit Writing library : libebml v1.3.7 + libmatroska v1.5.0 Video ID : 1 Format : AVC Format/Info : Advanced Video Codec Format profile : High@L4.1 Format settings : CABAC / 4 Ref Frames Format settings, CABAC : Yes Format settings, Reference frames : 4 frames Codec ID : V_MPEG4/ISO/AVC Duration : 1 h 26 min Bit rate : 16.9 Mb/s Width : 1 920 pixels Height : 1 040 pixels Display aspect ratio : 1.85:1 Frame rate mode : Constant Frame rate : 23.976 (24000/1001) FPS Color space : YUV Chroma subsampling : 4:2:0 Bit depth : 8 bits Scan type : Progressive Bits/(Pixel*Frame) : 0.353 Stream size : 10.2 GiB (96%) Writing library : x264 core 125 r2208 d9d2288 Encoding settings : cabac=1 / ref=4 / deblock=1:-3:-3 / analyse=0x3:0x113 / me=tesa / subme=11 / psy=1 / psy_rd=1.15:0.00 / mixed_ref=1 / me_range=16 / chroma_me=1 / trellis=2 / 8x8dct=1 / cqm=0 / deadzone=21,11 / fast_pskip=0 / chroma_qp_offset=-2 / threads=18 / lookahead_threads=3 / sliced_threads=0 / nr=0 / decimate=0 / interlaced=0 / bluray_compat=0 / constrained_intra=0 / bframes=8 / b_pyramid=2 / b_adapt=2 / b_bias=0 / direct=3 / weightb=1 / open_gop=0 / weightp=2 / keyint=240 / keyint_min=24 / scenecut=40 / intra_refresh=0 / rc_lookahead=240 / rc=2pass / mbtree=1 / bitrate=16900 / ratetol=1.0 / qcomp=0.70 / qpmin=0 / qpmax=69 / qpstep=4 / cplxblur=20.0 / qblur=0.5 / ip_ratio=1.40 / aq=1:1.10 Language : English Default : Yes Forced : No Audio #1 ID : 2 Format : AC-3 Format/Info : Audio Coding 3 Commercial name : Dolby Digital Codec ID : A_AC3 Duration : 1 h 26 min Bit rate mode : Constant Bit rate : 384 kb/s Channel(s) : 2 channels Channel layout : L R Sampling rate : 48.0 kHz Frame rate : 31.250 FPS (1536 SPF) Bit depth : 16 bits Compression mode : Lossy Stream size : 237 MiB (2%) Language : Japanese Service kind : Complete Main Default : Yes Forced : No Audio #2 ID : 3 Format : AC-3 Format/Info : Audio Coding 3 Commercial name : Dolby Digital Codec ID : A_AC3 Duration : 1 h 26 min Bit rate mode : Constant Bit rate : 192 kb/s Channel(s) : 2 channels Channel layout : L R Sampling rate : 48.0 kHz Frame rate : 31.250 FPS (1536 SPF) Bit depth : 16 bits Compression mode : Lossy Stream size : 119 MiB (1%) Language : German Service kind : Complete Main Default : No Forced : Yes Audio #3 ID : 4 Format : AC-3 Format/Info : Audio Coding 3 Commercial name : Dolby Digital Codec ID : A_AC3 Duration : 1 h 26 min Bit rate mode : Constant Bit rate : 192 kb/s Channel(s) : 2 channels Channel layout : L R Sampling rate : 48.0 kHz Frame rate : 31.250 FPS (1536 SPF) Bit depth : 16 bits Compression mode : Lossy Stream size : 119 MiB (1%) Language : English Service kind : Complete Main Default : No Forced : No Text #1 ID : 5 Format : PGS Muxing mode : zlib Codec ID : S_HDMV/PGS Codec ID/Info : Picture based subtitle format used on BDs/HD-DVDs Duration : 1 h 26 min Bit rate : 18.9 kb/s Count of elements : 1174 Stream size : 11.7 MiB (0%) Language : English Default : No Forced : No Text #2 ID : 6 Format : UTF-8 Codec ID : S_TEXT/UTF8 Codec ID/Info : UTF-8 Plain Text Duration : 1 h 25 min Bit rate : 31 b/s Count of elements : 540 Stream size : 19.8 KiB (0%) Language : German Default : Yes Forced : No Text #3 ID : 7 Format : ASS Codec ID : S_TEXT/ASS Codec ID/Info : Advanced Sub Station Alpha Duration : 1 h 22 min Bit rate : 48 b/s Count of elements : 605 Compression mode : Lossless Stream size : 28.9 KiB (0%) Language : Polish Default : No Forced : No Menu 00:00:00.000 : en:00:00:00.000 00:02:12.132 : en:00:02:12.132 00:07:27.280 : en:00:07:27.280 00:10:34.342 : en:00:10:34.342 00:15:42.066 : en:00:15:42.066 00:20:53.586 : en:00:20:53.586 00:24:55.953 : en:00:24:55.953 00:31:27.385 : en:00:31:27.385 00:35:46.561 : en:00:35:46.561 00:41:19.811 : en:00:41:19.811 00:46:18.651 : en:00:46:18.651 00:50:06.670 : en:00:50:06.670 00:56:17.040 : en:00:56:17.040 01:02:10.393 : en:01:02:10.393 01:07:08.608 : en:01:07:08.608 01:11:36.375 : en:01:11:36.375 01:17:06.622 : en:01:17:06.622 01:23:25.626 : en:01:23:25.626

File list

  • Mein.Nachbar.Totoro.My.Neighbor.Totoro.1988.1080p.BluRay.x264.MULTi.PL.Sub.AC3-pip3.mkv (10.7 GiB)