[NSBC] Tokyo Dokushin Danshi E02 [WEBDL] [1080p]

Category:
Date:
2019-04-21 00:54 UTC
Submitter:
Seeders:
2
Information:
TlNCQy50bw==
Leechers:
2
File size:
645.9 MiB
Completed:
717
Info hash:
04e3d298d5d6d178657d638731158f730d6f72ac
![POSTER](http://img.topddl.net/images/e420ff8362f244ec0acebe4694e05a71.jpg "") ![Thumbnails](http://img.topddl.net/images/50b3afa0e09906fc52b96569b4f67ff6.jpg "") ``` General Unique ID : 156902397979362046132032478403877700325 (0x760A4D7B38B7A107CE07A952205082E5) Complete name : [NSBC] Tokyo Dokushin Danshi E02 [WEBDL] [1080p].mkv Format : Matroska Format version : Version 4 File size : 646 MiB Duration : 40 min 29 s Overall bit rate : 2 230 kb/s Movie name : [NSBC] Tokyo Dokushin Danshi E02 [WEBDL] [1080p] Encoded date : UTC 2019-04-21 00:38:06 Writing application : mkvmerge v33.1.0 ('Primrose') 64-bit Writing library : libebml v1.3.7 + libmatroska v1.5.0 / Lavf57.83.100 Comment : NoNe | NSBC DATE_RECORDED : 2019 Video ID : 1 Format : AVC Format/Info : Advanced Video Codec Format profile : High@L4 Format settings : CABAC / 4 Ref Frames Format settings, CABAC : Yes Format settings, RefFrames : 4 frames Codec ID : V_MPEG4/ISO/AVC Duration : 40 min 29 s Bit rate : 2 100 kb/s Width : 1 920 pixels Height : 1 080 pixels Display aspect ratio : 16:9 Frame rate mode : Constant Frame rate : 29.970 (30000/1001) FPS Color space : YUV Chroma subsampling : 4:2:0 Bit depth : 8 bits Scan type : Progressive Bits/(Pixel*Frame) : 0.034 Stream size : 608 MiB (94%) Title : [NSBC] Writing library : Zencoder Video Encoding System Default : Yes Forced : No Color range : Limited Matrix coefficients : BT.709 VARIANT_BITRATE : 0 Audio ID : 2 Format : AAC LC Format/Info : Advanced Audio Codec Low Complexity Codec ID : A_AAC-2 Duration : 40 min 29 s Bit rate : 128 kb/s Channel(s) : 2 channels Channel layout : L R Sampling rate : 48.0 kHz Frame rate : 46.875 FPS (1024 SPF) Compression mode : Lossy Stream size : 37.0 MiB (6%) Title : NSBC] Language : Japanese Default : Yes Forced : No VARIANT_BITRATE : 0 ```

File list

  • [NSBC] Tokyo Dokushin Danshi E02 [WEBDL] [1080p].mkv (645.9 MiB)