[NSBC] In Hand E02 [WEBDL] [1080p]

Category:
Date:
2019-04-19 14:48 UTC
Submitter:
Seeders:
7
Information:
TlNCQy50bw==
Leechers:
1
File size:
1.0 GiB
Completed:
967
Info hash:
761fb3eaf2882a8c43180668032370d7b73e1446
![POSTER](http://img.topddl.net/images/1a977c6761c053cff807ab2cfe074afc.jpg "") ![Thumbnails](http://img.topddl.net/images/bcefd393e33de8f1facb1c4210ed234a.jpg "") ``` General Unique ID : 333042955810924755029404975953774862080 (0xFA8DBD799367AAA8A14ABF1D6F875F00) Complete name : [NSBC] In Hand E02 [WEBDL] [1080p].mkv Format : Matroska Format version : Version 4 File size : 1.00 GiB Duration : 45 min 52 s Overall bit rate : 3 128 kb/s Movie name : [NSBC] In Hand E02 [WEBDL] [1080p] Encoded date : UTC 2019-04-19 14:43:36 Writing application : mkvmerge v33.1.0 ('Primrose') 64-bit Writing library : libebml v1.3.7 + libmatroska v1.5.0 / Lavf57.83.100 Comment : NoNe | NSBC DATE_RECORDED : 2019 Video ID : 1 Format : AVC Format/Info : Advanced Video Codec Format profile : High@L4 Format settings : CABAC / 4 Ref Frames Format settings, CABAC : Yes Format settings, RefFrames : 4 frames Codec ID : V_MPEG4/ISO/AVC Duration : 45 min 52 s Bit rate : 2 934 kb/s Width : 1 920 pixels Height : 1 080 pixels Display aspect ratio : 16:9 Frame rate mode : Constant Frame rate : 29.970 (30000/1001) FPS Color space : YUV Chroma subsampling : 4:2:0 Bit depth : 8 bits Scan type : Progressive Bits/(Pixel*Frame) : 0.047 Stream size : 963 MiB (94%) Title : [NSBC] Writing library : Zencoder Video Encoding System Default : Yes Forced : No Color range : Limited Color primaries : BT.709 Transfer characteristics : BT.709 Matrix coefficients : BT.709 VARIANT_BITRATE : 0 Audio ID : 2 Format : AAC LC Format/Info : Advanced Audio Codec Low Complexity Codec ID : A_AAC-2 Duration : 45 min 52 s Bit rate : 192 kb/s Channel(s) : 2 channels Channel layout : L R Sampling rate : 48.0 kHz Frame rate : 46.875 FPS (1024 SPF) Compression mode : Lossy Stream size : 62.9 MiB (6%) Title : [NSBC] Language : Japanese Default : Yes Forced : No VARIANT_BITRATE : 0 ```

File list

  • [NSBC] In Hand E02 [WEBDL] [1080p].mkv (1.0 GiB)

NOSoba (uploader)

User
> ### INFO: i will upload Shitsuji Saionji no Meisuiri Season 2 tomorrow, soo tired right now :)