[U3-Web] Dororo / どろろ 2019 [EP14] [Eng/Ger-Subs] [AMZN WEB-DL 1080p AVC E-AC-3]

Category:
Date:
2019-04-15 17:20 UTC
Submitter:
Seeders:
7
Information:
Leechers:
0
File size:
628.1 MiB
Completed:
1261
Info hash:
d2aa4b6826beca0759edfb1f58b09a9620e60144
どろろ Dororo / 多羅羅 (2019) https://dororo-anime.com/ https://www.primevideo.com/detail/0TVO1JG449EFL5TZRWMN0DHHG0 **Video:** AVC(H.264) 1080p (**WEB-DL**[untouched]) **Audio:** E-AC-3(Dolby Digital Plus) Stereo 224 Kbps (**WEB-DL**[untouched]) **Subtitles**: **English, Deutsch** [SubRip] *** Comment: **untouched WEB-DL from Amazon Prime Video** **Enjoy !** *** ![alt text](https://images-fe.ssl-images-amazon.com/images/S/sgp-catalog-images/boxart_images/e5d3e311-7a8f-4393-832a-9162b685519d-158daf1c-6dfd-4f8f-bc7a-bb593d10ba65_RGB_SD.jpg "どろろ Dororo 2019")

File list

  • [U3-Web] Dororo 2019 - EP14 [AMZN WEB-DL 1080p AVC E-AC-3].mkv (628.1 MiB)
Arigatou!!!!!!!

U3-Web (uploader)

User
>any info ? >Is this good ? ![db1a4a99-4162-4cdb-883b-4d82876cec78.jpg](https://s2.ax1x.com/2019/04/16/AvQqKI.png) ``` Video ID : 1 Format : AVC Format/Info : Advanced Video Codec Format profile : High@L4 Format settings : CABAC / 4 Ref Frames Format settings, CABAC : Yes Format settings, RefFrames : 4 frames Codec ID : V_MPEG4/ISO/AVC Duration : 24 min 0 s Bit rate mode : Constant Bit rate : 3 433 kb/s Nominal bit rate : 10 000 kb/s Width : 1 920 pixels Height : 1 080 pixels Display aspect ratio : 16:9 Frame rate mode : Constant Frame rate : 23.976 (24000/1001) FPS Color space : YUV Chroma subsampling : 4:2:0 Bit depth : 8 bits Scan type : Progressive Bits/(Pixel*Frame) : 0.069 Stream size : 589 MiB (94%) Default : Yes Forced : No Color range : Limited Color primaries : BT.709 Transfer characteristics : BT.709 Matrix coefficients : BT.709 ```

U3-Web (uploader)

User
``` Audio ID : 2 Format : E-AC-3 Format/Info : Enhanced AC-3 Commercial name : Dolby Digital Plus Codec ID : A_EAC3 Duration : 24 min 0 s Bit rate mode : Constant Bit rate : 224 kb/s Channel(s) : 2 channels Channel layout : L R Sampling rate : 48.0 kHz Frame rate : 31.250 FPS (1536 SPF) Compression mode : Lossy Stream size : 38.5 MiB (6%) Title : 日本語 Language : Japanese Service kind : Complete Main Default : Yes Forced : No ```
Is this good or bad?
@Arilando it's direct rip from Amazon Prime Video, so it's good
What happened to the subtitles in Spanish? Chapters 1 through 12 had subtitles in Spanish and their version was collected. And now what do I do?
@Nakatasama just wait for subs available