Kuroshitsuji.AKA.Black.Butler.2014.1080p.BluRay.x264-HANDJOB [Dual audio]

Category:
Date:
2019-04-15 16:41 UTC
Submitter:
Seeders:
0
Information:
No information.
Leechers:
0
File size:
9.2 GiB
Completed:
211
Info hash:
a6519a22cee098a3c64a156779c98f327f2d56dc
Sourced through XDCC from #nibl@irc.rizon.net. **Reseed request will not be entertained** General Unique ID : 169399970538169747314453564834457860906 (0x7F713F61A68417C00072B4279F003B2A) Complete name : Kuroshitsuji.AKA.Black.Butler.2014.1080p.BluRay.x264-HANDJOB[4C55150F].mkv Format : Matroska Format version : Version 4 File size : 9.23 GiB Duration : 1 h 59 min Overall bit rate : 11.0 Mb/s Movie name : Kuroshitsuji AKA Black Butler [2014] 1080p BluRay - HJ Encoded date : UTC 2019-01-01 19:16:03 Writing application : mkvmerge v29.0.0 ('Like It Or Not') 64-bit Writing library : libebml v1.3.6 + libmatroska v1.4.9 IsTruncated : Yes Video ID : 1 Format : AVC Format/Info : Advanced Video Codec Format profile : High@L4.1 Format settings : CABAC / 5 Ref Frames Format settings, CABAC : Yes Format settings, RefFrames : 5 frames Codec ID : V_MPEG4/ISO/AVC Duration : 1 h 59 min Bit rate : 9 549 kb/s Width : 1 920 pixels Height : 804 pixels Display aspect ratio : 2.40:1 Frame rate mode : Constant Frame rate : 23.976 (24000/1001) FPS Color space : YUV Chroma subsampling : 4:2:0 Bit depth : 8 bits Scan type : Progressive Bits/(Pixel*Frame) : 0.258 Stream size : 7.98 GiB (86%) Writing library : x264 core 157 r2935 545de2f Encoding settings : cabac=1 / ref=5 / deblock=1:-3:-3 / analyse=0x3:0x133 / me=umh / subme=10 / psy=1 / psy_rd=1.00:0.00 / mixed_ref=1 / me_range=32 / chroma_me=1 / trellis=2 / 8x8dct=1 / cqm=0 / deadzone=21,11 / fast_pskip=0 / chroma_qp_offset=-2 / threads=6 / lookahead_threads=1 / sliced_threads=0 / nr=0 / decimate=0 / interlaced=0 / bluray_compat=0 / constrained_intra=0 / bframes=16 / b_pyramid=2 / b_adapt=2 / b_bias=0 / direct=3 / weightb=1 / open_gop=0 / weightp=1 / keyint=240 / keyint_min=24 / scenecut=40 / intra_refresh=0 / rc_lookahead=60 / rc=crf / mbtree=0 / crf=17.0 / qcomp=0.60 / qpmin=0 / qpmax=69 / qpstep=4 / vbv_maxrate=62500 / vbv_bufsize=78125 / crf_max=0.0 / nal_hrd=none / filler=0 / ip_ratio=1.40 / pb_ratio=1.30 / aq=2:1.00 Default : Yes Forced : No Color range : Limited Color primaries : BT.709 Transfer characteristics : BT.709 Matrix coefficients : BT.709 Audio #1 ID : 2 Format : AC-3 Format/Info : Audio Coding 3 Commercial name : Dolby Digital Codec ID : A_AC3 Duration : 1 h 59 min Bit rate mode : Constant Bit rate : 640 kb/s Channel(s) : 6 channels Channel layout : L R C LFE Ls Rs Sampling rate : 48.0 kHz Frame rate : 31.250 FPS (1536 SPF) Bit depth : 16 bits Compression mode : Lossy Stream size : 548 MiB (6%) Language : Japanese Service kind : Complete Main Default : Yes Forced : No Audio #2 ID : 3 Format : AC-3 Format/Info : Audio Coding 3 Commercial name : Dolby Digital Codec ID : A_AC3 Duration : 1 h 59 min Bit rate mode : Constant Bit rate : 640 kb/s Channel(s) : 6 channels Channel layout : L R C LFE Ls Rs Sampling rate : 48.0 kHz Frame rate : 31.250 FPS (1536 SPF) Bit depth : 16 bits Compression mode : Lossy Stream size : 548 MiB (6%) Title : English Dub Language : English Service kind : Complete Main Default : No Forced : No Text #1 ID : 4 Format : UTF-8 Codec ID : S_TEXT/UTF8 Codec ID/Info : UTF-8 Plain Text Language : English Default : Yes Forced : No Text #2 ID : 5 Format : UTF-8 Codec ID : S_TEXT/UTF8 Codec ID/Info : UTF-8 Plain Text Language : Japanese Default : No Forced : No Text #3 ID : 6 Format : UTF-8 Codec ID : S_TEXT/UTF8 Codec ID/Info : UTF-8 Plain Text Language : Chinese Default : No Forced : No Text #4 ID : 7 Format : UTF-8 Codec ID : S_TEXT/UTF8 Codec ID/Info : UTF-8 Plain Text Language : Spanish Default : No Forced : No Menu 00:00:00.000 : :Chapter 1 00:03:01.098 : :Chapter 2 00:15:09.117 : :Chapter 3 00:21:00.009 : :Chapter 4 00:27:44.580 : :Chapter 5 00:34:36.199 : :Chapter 6 00:40:05.737 : :Chapter 7 00:47:19.462 : :Chapter 8 00:53:54.565 : :Chapter 9 00:58:53.947 : :Chapter 10 01:03:27.679 : :Chapter 11 01:08:08.668 : :Chapter 12 01:15:38.159 : :Chapter 13 01:22:08.882 : :Chapter 14 01:27:48.263 : :Chapter 15 01:37:27.550 : :Chapter 16 01:44:05.072 : :Chapter 17 01:50:01.136 : :Chapter 18

File list

  • Kuroshitsuji.AKA.Black.Butler.2014.1080p.BluRay.x264-HANDJOB[4C55150F].mkv (9.2 GiB)
Wow, never knew this had a live action :) Thanks!