[NSBC] Spiral ~Machikouba no Kiseki~ E01 [WEBDL] [720p]

Category:
Date:
2019-04-15 16:04 UTC
Submitter:
Seeders:
1
Information:
TlNCQy50bw==
Leechers:
0
File size:
1004.7 MiB
Completed:
694
Info hash:
a1e747f013cbc83fffc56ebe227a74fa05e157f4
![POSTER](http://img.topddl.net/images/70113f708c05ca6e21d92a42b4334644.jpg "") ![Thumbnails](http://img.topddl.net/images/34a6c48beb581ca79db482ad9286d3a0.jpg "") ``` General Unique ID : 202053134772077900602774708457366858518 (0x980204ACC8E2DA892F131ECB9E7FAB16) Complete name : [NSBC] Spiral ~Machikouba no Kiseki~ E01 [WEBDL] [720p].mkv Format : Matroska Format version : Version 4 File size : 1 005 MiB Duration : 44 min 51 s Overall bit rate : 3 131 kb/s Movie name : [NSBC] Spiral ~Machikouba no Kiseki~ E01 [WEBDL] [720p] Encoded date : UTC 2019-04-15 15:59:28 Writing application : mkvmerge v33.1.0 ('Primrose') 64-bit Writing library : libebml v1.3.7 + libmatroska v1.5.0 / Lavf57.83.100 Comment : NoNe | NSBC DATE_RECORDED : 2019 Video ID : 1 Format : AVC Format/Info : Advanced Video Codec Format profile : Main@L3.1 Format settings : CABAC / 4 Ref Frames Format settings, CABAC : Yes Format settings, RefFrames : 4 frames Codec ID : V_MPEG4/ISO/AVC Duration : 44 min 51 s Bit rate : 3 001 kb/s Width : 1 280 pixels Height : 720 pixels Display aspect ratio : 16:9 Frame rate mode : Constant Frame rate : 30.000 FPS Color space : YUV Chroma subsampling : 4:2:0 Bit depth : 8 bits Scan type : Progressive Bits/(Pixel*Frame) : 0.109 Stream size : 963 MiB (96%) Writing library : Zencoder Video Encoding System Default : Yes Forced : No VARIANT_BITRATE : 0 Audio ID : 2 Format : AAC LC Format/Info : Advanced Audio Codec Low Complexity Codec ID : A_AAC-2 Duration : 44 min 51 s Bit rate : 128 kb/s Channel(s) : 2 channels Channel layout : L R Sampling rate : 48.0 kHz Frame rate : 46.875 FPS (1024 SPF) Compression mode : Lossy Delay relative to video : -109 ms Stream size : 41.0 MiB (4%) Language : Japanese Default : Yes Forced : No VARIANT_BITRATE : 0 ```

File list

  • [NSBC] Spiral ~Machikouba no Kiseki~ E01 [WEBDL] [720p].mkv (1004.7 MiB)