[NSBC] Tokyo Dokushin Danshi E01 [WEBDL] [1080p]

Category:
Date:
2019-04-15 15:06 UTC
Submitter:
Seeders:
6
Information:
TlNCQy50bw==
Leechers:
2
File size:
1.5 GiB
Completed:
677
Info hash:
b2cd8e216022a987908c29c71e6b5b4d84134efc
![POSTER](http://img.topddl.net/images/e420ff8362f244ec0acebe4694e05a71.jpg "") ![Thumbnails](http://img.topddl.net/images/045ad2f3cc77fd5befdc248a977b8085.jpg "") ``` General Unique ID : 83324623847374698813215469532981565342 (0x3EAFBD232086055C8D47FB08341D179E) Complete name : [NSBC] Tokyo Dokushin Danshi E01 [WEBDL] [1080p].mkv Format : Matroska Format version : Version 4 / Version 2 File size : 1.45 GiB Duration : 40 min 29 s Overall bit rate : 5 131 kb/s Movie name : [NSBC] Tokyo Dokushin Danshi E01 [WEBDL] [1080p] Encoded date : UTC 2019-04-15 14:59:23 Writing application : mkvmerge v33.1.0 ('Primrose') 64-bit Writing library : libebml v1.3.7 + libmatroska v1.5.0 / Lavf57.83.100 Comment : NoNe | NSBC DATE_RECORDED : 2019 Video ID : 1 Format : AVC Format/Info : Advanced Video Codec Format profile : High@L4 Format settings, CABAC : Yes Format settings, RefFrames : 4 frames Codec ID : V_MPEG4/ISO/AVC Duration : 40 min 29 s Bit rate : 5 001 kb/s Width : 1 920 pixels Height : 1 080 pixels Display aspect ratio : 16:9 Frame rate mode : Constant Frame rate : 30.000 FPS Color space : YUV Chroma subsampling : 4:2:0 Bit depth : 8 bits Scan type : Progressive Bits/(Pixel*Frame) : 0.080 Stream size : 1.41 GiB (97%) Writing library : Zencoder Video Encoding System Default : Yes Forced : No Color range : Limited Matrix coefficients : BT.709 VARIANT_BITRATE : 0 Audio ID : 2 Format : AAC Format/Info : Advanced Audio Codec Format profile : LC Codec ID : A_AAC Duration : 40 min 29 s Bit rate : 128 kb/s Channel(s) : 2 channels Channel positions : Front: L R Sampling rate : 48.0 kHz Frame rate : 46.875 FPS (1024 SPF) Compression mode : Lossy Delay relative to video : -109 ms Stream size : 37.0 MiB (2%) Language : Japanese Default : Yes Forced : No VARIANT_BITRATE : 0 ```

File list

  • [NSBC] Tokyo Dokushin Danshi E01 [WEBDL] [1080p].mkv (1.5 GiB)
Thank you for the RAW