[NSBC] Kami Tunes E02 [WEBDL] [720p]

Category:
Date:
2019-04-15 12:30 UTC
Submitter:
Seeders:
1
Information:
TlNCQy50bw==
Leechers:
0
File size:
528.0 MiB
Completed:
378
Info hash:
e984be5327de3f1d9efc8df08971f3f8ac99e345
> ### More Info [Click This](https://mydramalist.info/title/50613/kami_tunes%3A_narase%21_dtm_joshi) ![Poster](http://img.topddl.net/images/08eed762c6cb56fa793435ee23987cc7.png "") ``` General Unique ID : 213556442218921716790957610210240043190 (0xA0A97985318CED268B1C407B1DBD18B6) Complete name : [NSBC] Kami Tunes E02 [WEBDL] [720p].mkv Format : Matroska Format version : Version 4 File size : 528 MiB Duration : 23 min 34 s Overall bit rate : 3 132 kb/s Movie name : [NSBC] Kami Tunes E02 [WEBDL] [720p] Encoded date : UTC 2019-04-15 12:25:33 Writing application : mkvmerge v33.1.0 ('Primrose') 64-bit Writing library : libebml v1.3.7 + libmatroska v1.5.0 / Lavf57.83.100 Comment : NoNe | NSBC DATE_RECORDED : 2019 Video ID : 1 Format : AVC Format/Info : Advanced Video Codec Format profile : Main@L3.1 Format settings : CABAC / 4 Ref Frames Format settings, CABAC : Yes Format settings, RefFrames : 4 frames Codec ID : V_MPEG4/ISO/AVC Duration : 23 min 34 s Bit rate : 3 001 kb/s Width : 1 280 pixels Height : 720 pixels Display aspect ratio : 16:9 Frame rate mode : Constant Frame rate : 30.000 FPS Color space : YUV Chroma subsampling : 4:2:0 Bit depth : 8 bits Scan type : Progressive Bits/(Pixel*Frame) : 0.109 Stream size : 506 MiB (96%) Writing library : Zencoder Video Encoding System Default : Yes Forced : No Color range : Limited Color primaries : BT.709 Transfer characteristics : BT.709 Matrix coefficients : BT.709 VARIANT_BITRATE : 0 Audio ID : 2 Format : AAC LC Format/Info : Advanced Audio Codec Low Complexity Codec ID : A_AAC-2 Duration : 23 min 34 s Bit rate : 128 kb/s Channel(s) : 2 channels Channel layout : L R Sampling rate : 48.0 kHz Frame rate : 46.875 FPS (1024 SPF) Compression mode : Lossy Delay relative to video : -109 ms Stream size : 21.5 MiB (4%) Language : Japanese Default : Yes Forced : No VARIANT_BITRATE : 0 ```

File list

  • [NSBC] Kami Tunes E02 [WEBDL] [720p].mkv (528.0 MiB)