[NSBC] Rikon na Futari E02 [WEBDL] [1080p]

Category:
Date:
2019-04-15 12:12 UTC
Submitter:
Seeders:
3
Information:
TlNCQy50bw==
Leechers:
0
File size:
1.7 GiB
Completed:
290
Info hash:
76df952ded51bf84a857ef58b5ddf412e8656dd5
![POSTER](http://img.topddl.net/images/a5f0fded4d454615c1a4af2238a66e58.jpg "") ``` General Unique ID : 200026962181087663975986273393029624576 (0x967BCAA746C964FF41A8B1B5402F3300) Complete name : [NSBC] Rikon na Futari E02 [WEBDL] [1080p].mkv Format : Matroska Format version : Version 4 File size : 1.71 GiB Duration : 47 min 42 s Overall bit rate : 5 132 kb/s Movie name : [NSBC] Rikon na Futari E02 [WEBDL] [1080p] Encoded date : UTC 2019-04-15 11:57:04 Writing application : mkvmerge v33.1.0 ('Primrose') 64-bit Writing library : libebml v1.3.7 + libmatroska v1.5.0 / Lavf57.83.100 Comment : NoNe | NSBC DATE_RECORDED : 2019 Video ID : 1 Format : AVC Format/Info : Advanced Video Codec Format profile : High@L4 Format settings : CABAC / 4 Ref Frames Format settings, CABAC : Yes Format settings, RefFrames : 4 frames Codec ID : V_MPEG4/ISO/AVC Duration : 47 min 42 s Bit rate : 5 002 kb/s Width : 1 920 pixels Height : 1 080 pixels Display aspect ratio : 16:9 Frame rate mode : Constant Frame rate : 30.000 FPS Color space : YUV Chroma subsampling : 4:2:0 Bit depth : 8 bits Scan type : Progressive Bits/(Pixel*Frame) : 0.080 Stream size : 1.67 GiB (97%) Writing library : Zencoder Video Encoding System Default : Yes Forced : No Color range : Limited Matrix coefficients : BT.709 VARIANT_BITRATE : 0 Audio ID : 2 Format : AAC LC Format/Info : Advanced Audio Codec Low Complexity Codec ID : A_AAC-2 Duration : 47 min 42 s Bit rate : 128 kb/s Channel(s) : 2 channels Channel layout : L R Sampling rate : 48.0 kHz Frame rate : 46.875 FPS (1024 SPF) Compression mode : Lossy Delay relative to video : -109 ms Stream size : 43.6 MiB (2%) Language : Japanese Default : Yes Forced : No VARIANT_BITRATE : 0 ```

File list

  • [NSBC] Rikon na Futari E02 [WEBDL] [1080p].mkv (1.7 GiB)