[NSBC] Anata no Ban Desu E01 [WEBDL] [1080p]

Category:
Date:
2019-04-15 00:47 UTC
Submitter:
Seeders:
14
Information:
TlNCQy50bw==
Leechers:
4
File size:
814.1 MiB
Completed:
484
Info hash:
73b5c4468de7da2d2238d75143ad337fbe815c66
![POSTER](http://img.topddl.net/images/5619e0ec8bf6744003a9ced6c57f860b.png "") ![Thumbnails](http://img.topddl.net/images/102e3a06d8010b4db2a77e669bef475b.jpg "") ``` General Unique ID : 320410163728500110090351638825126564909 (0xF10CC0BCD0649C5AAC05375172CF942D) Complete name : [NSBC] Anata no Ban Desu E01 [WEBDL] [1080p].mkv Format : Matroska Format version : Version 4 File size : 814 MiB Duration : 46 min 4 s Overall bit rate : 2 471 kb/s Movie name : [NSBC] Anata no Ban Desu E01 [WEBDL] [1080p] Encoded date : UTC 2019-04-15 00:34:47 Writing application : mkvmerge v33.0.0 ('A Little Bit of Madness') 64-bit Writing library : libebml v1.3.7 + libmatroska v1.5.0 / Lavf57.83.100 Comment : NoNe | NSBC DATE_RECORDED : 2019 Video ID : 1 Format : AVC Format/Info : Advanced Video Codec Format profile : High@L4 Format settings : CABAC / 4 Ref Frames Format settings, CABAC : Yes Format settings, RefFrames : 4 frames Codec ID : V_MPEG4/ISO/AVC Duration : 46 min 4 s Bit rate : 2 276 kb/s Width : 1 920 pixels Height : 1 080 pixels Display aspect ratio : 16:9 Frame rate mode : Constant Frame rate : 29.970 (30000/1001) FPS Color space : YUV Chroma subsampling : 4:2:0 Bit depth : 8 bits Scan type : Progressive Bits/(Pixel*Frame) : 0.037 Stream size : 750 MiB (92%) Writing library : Zencoder Video Encoding System Default : Yes Forced : No VARIANT_BITRATE : 0 Audio ID : 2 Format : AAC LC Format/Info : Advanced Audio Codec Low Complexity Codec ID : A_AAC-2 Duration : 46 min 4 s Bit rate : 192 kb/s Channel(s) : 2 channels Channel layout : L R Sampling rate : 48.0 kHz Frame rate : 46.875 FPS (1024 SPF) Compression mode : Lossy Stream size : 63.2 MiB (8%) Language : Japanese Default : Yes Forced : No VARIANT_BITRATE : 0 ```

File list

  • [NSBC] Anata no Ban Desu E01 [WEBDL] [1080p].mkv (814.1 MiB)