[STARS] Battle Angel Alita OVA [DVDRIP - GER/DE - 640x478p]

Category:
Date:
2019-04-14 16:39 UTC
Submitter:
Seeders:
1
Information:
No information.
Leechers:
0
File size:
604.1 MiB
Completed:
78
Info hash:
b1a350e82f8f23db258eca580bf643c72b2e9684
General Unique ID : 185391126328402777276632951282456929425 (0x8B79083BC40FF2219C954C693C692491) Complete name Battle.Angel.Alita.OVA1.Rusty.Angel.German.Dubbed.1993.ANiME.DVDRiP.x264-STARS\stars-battle.angel.alita.ova.1.mkv Format : Matroska Format version : Version 4 File size : 302 MiB Duration : 29 min 0 s Overall bit rate : 1 456 kb/s Movie name : BATTLE ANGEL ALITA - OVA1 - RUSTY ANGEL - STARS Encoded date : UTC 2017-03-22 01:43:04 Writing application : mkvmerge v6.1.0 ('Old Devil') built on Mar 2 2013 14:32:37 Writing library : libebml v1.3.0 + libmatroska v1.4.0 Video ID : 1 Format : AVC Format/Info : Advanced Video Codec Format profile : High@L3.1 Format settings : CABAC / 5 Ref Frames Format settings, CABAC : Yes Format settings, RefFrames : 5 frames Codec ID : V_MPEG4/ISO/AVC Duration : 29 min 0 s Bit rate : 1 235 kb/s Width : 640 pixels Height : 478 pixels Display aspect ratio : 4:3 Frame rate mode : Constant Frame rate : 23.976 (24000/1001) FPS Color space : YUV Chroma subsampling : 4:2:0 Bit depth : 8 bits Scan type : Progressive Bits/(Pixel*Frame) : 0.168 Stream size : 256 MiB (85%) Title : BATTLE ANGEL ALITA - OVA1 - RUSTY ANGEL - STARS Writing library : x264 core 148 r2762 90a61ec Encoding settings : cabac=1 / ref=5 / deblock=1:0:0 / analyse=0x3:0x133 / me=umh / subme=7 / psy=1 / psy_rd=1.00:0.15 / mixed_ref=1 / me_range=16 / chroma_me=1 / trellis=2 / 8x8dct=1 / cqm=0 / deadzone=21,11 / fast_pskip=0 / chroma_qp_offset=-3 / threads=12 / lookahead_threads=2 / sliced_threads=0 / nr=0 / decimate=1 / interlaced=0 / bluray_compat=0 / constrained_intra=0 / bframes=3 / b_pyramid=2 / b_adapt=1 / b_bias=0 / direct=3 / weightb=1 / open_gop=0 / weightp=2 / keyint=250 / keyint_min=23 / scenecut=40 / intra_refresh=0 / rc_lookahead=40 / rc=crf / mbtree=1 / crf=19.0 / qcomp=0.60 / qpmin=0 / qpmax=69 / qpstep=4 / ip_ratio=1.40 / aq=1:1.00 Default : Yes Forced : Yes Audio ID : 2 Format : AC-3 Format/Info : Audio Coding 3 Commercial name : Dolby Digital Codec ID : A_AC3 Duration : 29 min 0 s Bit rate mode : Constant Bit rate : 192 kb/s Channel(s) : 2 channels Channel layout : L R Sampling rate : 48.0 kHz Frame rate : 31.250 FPS (1536 SPF) Bit depth : 16 bits Compression mode : Lossy Stream size : 39.8 MiB (13%) Title : GER - AC3 Language : German Service kind : Complete Main Default : Yes Forced : Yes General Unique ID : 242075994472762784843439579361614345305 (0xB61E24021CEB431690D7BEE32DE9B459) Complete name : Battle.Angel.Alita.OVA2.Tears.Sign.German.Dubbed.1993.ANiME.DVDRiP.x264-STARS\stars-battle.angel.alita.ova.2.mkv Format : Matroska Format version : Version 4 File size : 302 MiB Duration : 29 min 3 s Overall bit rate : 1 453 kb/s Movie name : BATTLE ANGEL ALITA - OVA2 - TEARS SIGN - STARS Encoded date : UTC 2017-03-22 01:44:01 Writing application : mkvmerge v6.1.0 ('Old Devil') built on Mar 2 2013 14:32:37 Writing library : libebml v1.3.0 + libmatroska v1.4.0 Video ID : 1 Format : AVC Format/Info : Advanced Video Codec Format profile : High@L3.1 Format settings : CABAC / 5 Ref Frames Format settings, CABAC : Yes Format settings, RefFrames : 5 frames Codec ID : V_MPEG4/ISO/AVC Duration : 29 min 3 s Bit rate : 1 232 kb/s Width : 640 pixels Height : 478 pixels Display aspect ratio : 4:3 Frame rate mode : Constant Frame rate : 23.976 (24000/1001) FPS Color space : YUV Chroma subsampling : 4:2:0 Bit depth : 8 bits Scan type : Progressive Bits/(Pixel*Frame) : 0.168 Stream size : 256 MiB (85%) Title : BATTLE ANGEL ALITA - OVA2 - TEARS SIGN - STARS Writing library : x264 core 148 r2762 90a61ec Encoding settings : cabac=1 / ref=5 / deblock=1:0:0 / analyse=0x3:0x133 / me=umh / subme=7 / psy=1 / psy_rd=1.00:0.15 / mixed_ref=1 / me_range=16 / chroma_me=1 / trellis=2 / 8x8dct=1 / cqm=0 / deadzone=21,11 / fast_pskip=0 / chroma_qp_offset=-3 / threads=12 / lookahead_threads=2 / sliced_threads=0 / nr=0 / decimate=1 / interlaced=0 / bluray_compat=0 / constrained_intra=0 / bframes=3 / b_pyramid=2 / b_adapt=1 / b_bias=0 / direct=3 / weightb=1 / open_gop=0 / weightp=2 / keyint=250 / keyint_min=23 / scenecut=40 / intra_refresh=0 / rc_lookahead=40 / rc=crf / mbtree=1 / crf=19.0 / qcomp=0.60 / qpmin=0 / qpmax=69 / qpstep=4 / ip_ratio=1.40 / aq=1:1.00 Default : Yes Forced : Yes Audio ID : 2 Format : AC-3 Format/Info : Audio Coding 3 Commercial name : Dolby Digital Codec ID : A_AC3 Duration : 29 min 3 s Bit rate mode : Constant Bit rate : 192 kb/s Channel(s) : 2 channels Channel layout : L R Sampling rate : 48.0 kHz Frame rate : 31.250 FPS (1536 SPF) Bit depth : 16 bits Compression mode : Lossy Stream size : 39.9 MiB (13%) Title : GER - AC3 Language : German Service kind : Complete Main Default : Yes Forced : Yes

File list

pip3 (uploader)

User
my fucking hard drive broke so i can't seed this for a while, i will seed it eventually tho

pip3 (uploader)

User
NOW SEEDING!
Thanks, but PLEASE seed it

pip3 (uploader)

User
schon dabei on it