[NSBC] Yaji x Kita Ganzo Tokaidochu Hizakurige E02 [WEBDL] [720p]

Category:
Date:
2019-04-14 05:46 UTC
Submitter:
Seeders:
1
Information:
TlNCQy50bw==
Leechers:
2
File size:
984.4 MiB
Completed:
390
Info hash:
f7f295a312a84c702c1dbff368816756ef548939
![POSTER](http://img.topddl.net/images/cd0f2adef271c5e4e24695597a445bf5.jpg "") ``` General Unique ID : 321610334838608552040341723453587197848 (0xF1F3E5BDE8508F1A557F8EA7271C0F98) Complete name : [NSBC] Yaji x Kita Ganzo Tokaidochu Hizakurige E02 [WEBDL] [720p].mkv Format : Matroska Format version : Version 4 File size : 984 MiB Duration : 43 min 56 s Overall bit rate : 3 132 kb/s Movie name : [NSBC] Yaji x Kita Ganzo Tokaidochu Hizakurige E02 [WEBDL] [720p] Encoded date : UTC 2019-04-14 05:40:27 Writing application : mkvmerge v33.0.0 ('A Little Bit of Madness') 64-bit Writing library : libebml v1.3.7 + libmatroska v1.5.0 / Lavf57.83.100 Comment : NoNe | NSBC DATE_RECORDED : 2019 Video ID : 1 Format : AVC Format/Info : Advanced Video Codec Format profile : Main@L3.1 Format settings : CABAC / 4 Ref Frames Format settings, CABAC : Yes Format settings, RefFrames : 4 frames Codec ID : V_MPEG4/ISO/AVC Duration : 43 min 56 s Bit rate : 3 001 kb/s Width : 1 280 pixels Height : 720 pixels Display aspect ratio : 16:9 Frame rate mode : Constant Frame rate : 30.000 FPS Color space : YUV Chroma subsampling : 4:2:0 Bit depth : 8 bits Scan type : Progressive Bits/(Pixel*Frame) : 0.109 Stream size : 943 MiB (96%) Writing library : Zencoder Video Encoding System Default : Yes Forced : No VARIANT_BITRATE : 0 Audio ID : 2 Format : AAC LC Format/Info : Advanced Audio Codec Low Complexity Codec ID : A_AAC-2 Duration : 43 min 56 s Bit rate : 128 kb/s Channel(s) : 2 channels Channel layout : L R Sampling rate : 48.0 kHz Frame rate : 46.875 FPS (1024 SPF) Compression mode : Lossy Delay relative to video : -109 ms Stream size : 40.2 MiB (4%) Language : Japanese Default : Yes Forced : No VARIANT_BITRATE : 0 ```

File list

  • [NSBC] Yaji x Kita Ganzo Tokaidochu Hizakurige E02 [WEBDL] [720p].mkv (984.4 MiB)