[NSBC] Kabukicho Bengonin Rinka E01 [WEBDL] [720p]

Category:
Date:
2019-04-14 01:00 UTC
Submitter:
Seeders:
16
Information:
TlNCQy50bw==
Leechers:
4
File size:
522.2 MiB
Completed:
497
Info hash:
c7a0c9b2841c93defd6f0e725228c922aa7d2585
![POSTER](http://img.topddl.net/images/c3ce19b07569b32fa6768397d0202cb5.jpg "") ![Thumbnails](http://img.topddl.net/images/6347202f39c2d25e445ddf24db43de0c.jpg "") ``` General Unique ID : 192364246815508376976181970837777436341 (0x90B8019E002A05C2C29E8BD405744EB5) Complete name : [NSBC] Kabukicho Bengonin Rinka E01 [WEBDL] [720p].mkv Format : Matroska Format version : Version 4 File size : 522 MiB Duration : 23 min 19 s Overall bit rate : 3 131 kb/s Movie name : [NSBC] Kabukicho Bengonin Rinka E01 [WEBDL] [720p] Encoded date : UTC 2019-04-14 00:46:28 Writing application : mkvmerge v33.0.0 ('A Little Bit of Madness') 64-bit Writing library : libebml v1.3.7 + libmatroska v1.5.0 / Lavf57.83.100 Comment : NoNe | NSBC DATE_RECORDED : 2019 Video ID : 1 Format : AVC Format/Info : Advanced Video Codec Format profile : Main@L3.1 Format settings : CABAC / 4 Ref Frames Format settings, CABAC : Yes Format settings, RefFrames : 4 frames Codec ID : V_MPEG4/ISO/AVC Duration : 23 min 19 s Bit rate : 3 000 kb/s Width : 1 280 pixels Height : 720 pixels Display aspect ratio : 16:9 Frame rate mode : Constant Frame rate : 30.000 FPS Color space : YUV Chroma subsampling : 4:2:0 Bit depth : 8 bits Scan type : Progressive Bits/(Pixel*Frame) : 0.109 Stream size : 500 MiB (96%) Writing library : Zencoder Video Encoding System Default : Yes Forced : No VARIANT_BITRATE : 0 Audio ID : 2 Format : AAC LC Format/Info : Advanced Audio Codec Low Complexity Codec ID : A_AAC-2 Duration : 23 min 19 s Bit rate : 128 kb/s Channel(s) : 2 channels Channel layout : L R Sampling rate : 48.0 kHz Frame rate : 46.875 FPS (1024 SPF) Compression mode : Lossy Delay relative to video : -109 ms Stream size : 21.3 MiB (4%) Language : Japanese Default : Yes Forced : No VARIANT_BITRATE : 0 ```

File list

  • [NSBC] Kabukicho Bengonin Rinka E01 [WEBDL] [720p].mkv (522.2 MiB)