[NSBC] Kinou Nani Tabeta? E02 [WEBDL] [720p]

Category:
Date:
2019-04-13 01:23 UTC
Submitter:
Seeders:
14
Information:
TlNCQy50bw==
Leechers:
2
File size:
674.9 MiB
Completed:
1057
Info hash:
669478b27b8e48ed88db47263a6734d3904904bc
![POSTER](http://img.topddl.net/images/ea1dfec5cb1766fc14efefb01a85fd42.jpg "") ``` General Unique ID : 201099478924156808296958529963949295462 (0x974A59CFBCC2B51FEBBB2AA1A8640766) Complete name : [NSBC] Kinou Nani Tabeta E02 [WEBDL] [720p].mkv Format : Matroska Format version : Version 4 File size : 675 MiB Duration : 30 min 8 s Overall bit rate : 3 131 kb/s Movie name : [NSBC] Kinou Nani Tabeta? E02 [WEBDL] [720p] Encoded date : UTC 2019-04-13 01:18:44 Writing application : mkvmerge v33.0.0 ('A Little Bit of Madness') 64-bit Writing library : libebml v1.3.7 + libmatroska v1.5.0 / Lavf57.83.100 Comment : NoNe | NSBC DATE_RECORDED : 2019 Video ID : 1 Format : AVC Format/Info : Advanced Video Codec Format profile : Main@L3.1 Format settings : CABAC / 4 Ref Frames Format settings, CABAC : Yes Format settings, RefFrames : 4 frames Codec ID : V_MPEG4/ISO/AVC Duration : 30 min 8 s Bit rate : 3 001 kb/s Width : 1 280 pixels Height : 720 pixels Display aspect ratio : 16:9 Frame rate mode : Constant Frame rate : 30.000 FPS Color space : YUV Chroma subsampling : 4:2:0 Bit depth : 8 bits Scan type : Progressive Bits/(Pixel*Frame) : 0.109 Stream size : 647 MiB (96%) Writing library : Zencoder Video Encoding System Default : Yes Forced : No VARIANT_BITRATE : 0 Audio ID : 2 Format : AAC LC Format/Info : Advanced Audio Codec Low Complexity Codec ID : A_AAC-2 Duration : 30 min 8 s Bit rate : 128 kb/s Channel(s) : 2 channels Channel layout : L R Sampling rate : 48.0 kHz Frame rate : 46.875 FPS (1024 SPF) Compression mode : Lossy Delay relative to video : -109 ms Stream size : 27.5 MiB (4%) Language : Japanese Default : Yes Forced : No VARIANT_BITRATE : 0 ```

File list

  • [NSBC] Kinou Nani Tabeta E02 [WEBDL] [720p].mkv (674.9 MiB)