[NSBC] In Hand E01 [WEBDL] [1080p]

Category:
Date:
2019-04-13 00:22 UTC
Submitter:
Seeders:
15
Information:
TlNCQy50bw==
Leechers:
4
File size:
1.2 GiB
Completed:
722
Info hash:
bed3153206e918cf79e5d9b5170398afc9ab8d3c
![POSTER](http://img.topddl.net/images/1a977c6761c053cff807ab2cfe074afc.jpg "") ![Thumbnails](http://img.topddl.net/images/9fc6ebd1c66475d296c9a4bfe3b8781a.jpg "") ``` General Unique ID : 177066311595289501971183569348926120395 (0x8535BB2D9658D64FF0D11B0BFAD021CB) Complete name : [NSBC] In Hand E01 [WEBDL] [1080p].mkv Format : Matroska Format version : Version 4 File size : 1.17 GiB Duration : 59 min 24 s Overall bit rate : 2 821 kb/s Movie name : [NSBC] In Hand E01 [WEBDL] [1080p] Encoded date : UTC 2019-04-13 00:14:28 Writing application : mkvmerge v32.0.0 ('Astral Progressions') 64-bit Writing library : libebml v1.3.7 + libmatroska v1.5.0 / Lavf57.83.100 Comment : NoNe | NSBC DATE_RECORDED : 2019 Video ID : 1 Format : AVC Format/Info : Advanced Video Codec Format profile : High@L4 Format settings : CABAC / 4 Ref Frames Format settings, CABAC : Yes Format settings, RefFrames : 4 frames Codec ID : V_MPEG4/ISO/AVC Duration : 59 min 23 s Bit rate : 2 626 kb/s Width : 1 920 pixels Height : 1 080 pixels Display aspect ratio : 16:9 Frame rate mode : Constant Frame rate : 29.970 (30000/1001) FPS Color space : YUV Chroma subsampling : 4:2:0 Bit depth : 8 bits Scan type : Progressive Bits/(Pixel*Frame) : 0.042 Stream size : 1.09 GiB (93%) Writing library : Zencoder Video Encoding System Default : Yes Forced : No Color range : Limited Color primaries : BT.709 Transfer characteristics : BT.709 Matrix coefficients : BT.709 VARIANT_BITRATE : 0 Audio ID : 2 Format : AAC LC Format/Info : Advanced Audio Codec Low Complexity Codec ID : A_AAC-2 Duration : 59 min 24 s Bit rate : 192 kb/s Channel(s) : 2 channels Channel layout : L R Sampling rate : 48.0 kHz Frame rate : 46.875 FPS (1024 SPF) Compression mode : Lossy Stream size : 81.5 MiB (7%) Language : Japanese Default : Yes Forced : No ```

File list

  • [NSBC] In Hand E01 [WEBDL] [1080p].mkv (1.2 GiB)