[NSBC] Denei Shojo ~VIDEO GIRL MAI~ 2019 E01 [WEBDL] [720p]

Category:
Date:
2019-04-12 01:30 UTC
Submitter:
Seeders:
5
Information:
TlNCQy50bw==
Leechers:
3
File size:
544.7 MiB
Completed:
503
Info hash:
de2def5c4d4a85ffe585c7f339dc8b6f40172434
![POSTER](http://img.topddl.net/images/e2e1257f19dbcc7278b0470114d5f357.jpg "") ![Thumbnails](http://img.topddl.net/images/037d68fb37ba07dbf1f27e93a645fb27.jpg "") ``` General Unique ID : 256952941112254803137136033777696494337 (0xC14F561B99A8F9F0FFA0B5766771D301) Complete name : [NSBC] Denei Shojo ~VIDEO GIRL MAI~ 2019 E01 [WEBDL] [720p].mkv Format : Matroska Format version : Version 4 File size : 545 MiB Duration : 24 min 19 s Overall bit rate : 3 131 kb/s Movie name : [NSBC] Denei Shojo ~VIDEO GIRL MAI~ 2019 E01 [WEBDL] [720p] Encoded date : UTC 2019-04-12 01:17:22 Writing application : mkvmerge v32.0.0 ('Astral Progressions') 64-bit Writing library : libebml v1.3.7 + libmatroska v1.5.0 / Lavf57.83.100 Comment : NoNe | NSBC DATE_RECORDED : 2019 Video ID : 1 Format : AVC Format/Info : Advanced Video Codec Format profile : Main@L3.1 Format settings : CABAC / 4 Ref Frames Format settings, CABAC : Yes Format settings, RefFrames : 4 frames Format settings, GOP : M=4, N=30 Codec ID : V_MPEG4/ISO/AVC Duration : 24 min 19 s Bit rate : 3 001 kb/s Width : 1 280 pixels Height : 720 pixels Display aspect ratio : 16:9 Frame rate mode : Constant Frame rate : 30.000 FPS Color space : YUV Chroma subsampling : 4:2:0 Bit depth : 8 bits Scan type : Progressive Bits/(Pixel*Frame) : 0.109 Stream size : 522 MiB (96%) Writing library : Zencoder Video Encoding System Default : Yes Forced : No VARIANT_BITRATE : 0 Audio ID : 2 Format : AAC LC Format/Info : Advanced Audio Codec Low Complexity Codec ID : A_AAC-2 Duration : 24 min 19 s Bit rate : 128 kb/s Channel(s) : 2 channels Channel layout : L R Sampling rate : 48.0 kHz Frame rate : 46.875 FPS (1024 SPF) Compression mode : Lossy Delay relative to video : -109 ms Stream size : 22.2 MiB (4%) Language : Japanese Default : Yes Forced : No VARIANT_BITRATE : 0 ```

File list

  • [NSBC] Denei Shojo ~VIDEO GIRL MAI~ 2019 E01 [WEBDL] [720p].mkv (544.7 MiB)