[NSBC] Mukai no Bazuru Kazoku E02 [WEBDL] [720p]

Category:
Date:
2019-04-12 01:30 UTC
Submitter:
Seeders:
9
Information:
TlNCQy50bw==
Leechers:
3
File size:
971.3 MiB
Completed:
334
Info hash:
bc9a62296bab670d267b25546f09132d7b875ece
![POSTER](http://img.topddl.net/images/2098c2d392bf470a0529bd55f634cc5c.jpg "") ``` General Unique ID : 146060810367924724789880753170829271613 (0x6DE249F158B396E0E6E9F14C61C7E23D) Complete name : [NSBC] Mukai no Bazuru Kazoku E02 [WEBDL] [720p].mkv Format : Matroska Format version : Version 4 File size : 971 MiB Duration : 43 min 22 s Overall bit rate : 3 131 kb/s Movie name : [NSBC] Mukai no Bazuru Kazoku E02 [WEBDL] [720p] Encoded date : UTC 2019-04-12 01:17:50 Writing application : mkvmerge v32.0.0 ('Astral Progressions') 64-bit Writing library : libebml v1.3.7 + libmatroska v1.5.0 / Lavf57.83.100 Comment : NoNe | NSBC DATE_RECORDED : 2019 Video ID : 1 Format : AVC Format/Info : Advanced Video Codec Format profile : Main@L3.1 Format settings : CABAC / 4 Ref Frames Format settings, CABAC : Yes Format settings, RefFrames : 4 frames Codec ID : V_MPEG4/ISO/AVC Duration : 43 min 22 s Bit rate : 3 001 kb/s Width : 1 280 pixels Height : 720 pixels Display aspect ratio : 16:9 Frame rate mode : Constant Frame rate : 30.000 FPS Color space : YUV Chroma subsampling : 4:2:0 Bit depth : 8 bits Scan type : Progressive Bits/(Pixel*Frame) : 0.109 Stream size : 931 MiB (96%) Writing library : Zencoder Video Encoding System Default : Yes Forced : No VARIANT_BITRATE : 0 Audio ID : 2 Format : AAC LC Format/Info : Advanced Audio Codec Low Complexity Codec ID : A_AAC-2 Duration : 43 min 22 s Bit rate : 128 kb/s Channel(s) : 2 channels Channel layout : L R Sampling rate : 48.0 kHz Frame rate : 46.875 FPS (1024 SPF) Compression mode : Lossy Delay relative to video : -109 ms Stream size : 39.6 MiB (4%) Language : Japanese Default : Yes Forced : No VARIANT_BITRATE : 0 ```

File list

  • [NSBC] Mukai no Bazuru Kazoku E02 [WEBDL] [720p].mkv (971.3 MiB)
I need this subbed so much :/