[NSBC] Yasuragi no Toki ~ Michi E04 [WEBDL] [1080p]

Category:
Date:
2019-04-12 01:30 UTC
Submitter:
Seeders:
9
Information:
TlNCQy50bw==
Leechers:
0
File size:
569.4 MiB
Completed:
230
Info hash:
504a21b0df4847613b105507f5199a8faa8a16d7
![POSTER](http://img.topddl.net/images/e17dec5eabbdda7464f3887e124bfeac.jpg "") ``` General Unique ID : 111617643242850610671582383697974383691 (0x53F8C6B165227A7D79E19A401B19D44B) Complete name : [NSBC] Yasuragi no Toki ~ Michi E04 [WEBDL] [1080p].mkv Format : Matroska Format version : Version 4 File size : 569 MiB Duration : 15 min 31 s Overall bit rate : 5 130 kb/s Movie name : [NSBC] Yasuragi no Toki ~ Michi E04 [WEBDL] [1080p] Encoded date : UTC 2019-04-12 01:21:42 Writing application : mkvmerge v32.0.0 ('Astral Progressions') 64-bit Writing library : libebml v1.3.7 + libmatroska v1.5.0 / Lavf57.83.100 Comment : NoNe | NSBC DATE_RECORDED : 2019 Video ID : 1 Format : AVC Format/Info : Advanced Video Codec Format profile : High@L4 Format settings : CABAC / 4 Ref Frames Format settings, CABAC : Yes Format settings, RefFrames : 4 frames Codec ID : V_MPEG4/ISO/AVC Duration : 15 min 30 s Bit rate : 5 000 kb/s Width : 1 920 pixels Height : 1 080 pixels Display aspect ratio : 16:9 Frame rate mode : Constant Frame rate : 30.000 FPS Color space : YUV Chroma subsampling : 4:2:0 Bit depth : 8 bits Scan type : Progressive Bits/(Pixel*Frame) : 0.080 Stream size : 555 MiB (97%) Writing library : Zencoder Video Encoding System Default : Yes Forced : No Color range : Limited Matrix coefficients : BT.709 VARIANT_BITRATE : 0 Audio ID : 2 Format : AAC LC Format/Info : Advanced Audio Codec Low Complexity Codec ID : A_AAC-2 Duration : 15 min 31 s Bit rate : 127 kb/s Channel(s) : 2 channels Channel layout : L R Sampling rate : 48.0 kHz Frame rate : 46.875 FPS (1024 SPF) Compression mode : Lossy Delay relative to video : -109 ms Stream size : 14.1 MiB (2%) Language : Japanese Default : Yes Forced : No VARIANT_BITRATE : 0 ```

File list

  • [NSBC] Yasuragi no Toki ~ Michi E04 [WEBDL] [1080p].mkv (569.4 MiB)