[NSBC] 3D Kanojo: Real Girl 2018 [BluRay REMUX] [1080p] [ID]

Category:
Date:
2019-04-09 05:56 UTC
Submitter:
Seeders:
0
Information:
TlNCQy50bw==
Leechers:
2
File size:
22.7 GiB
Completed:
104
Info hash:
ca87399ad0fc28ea0255c2085797258c2ff80609
> ### `Subtitle Indonesia` > ### Just in case if there's no seed anymore, Download [HERE](http://idfl.top/file/b921d2) ![POSTER](http://img.topddl.net/images/2a14e437875cb3413a6ddba2623bfbe8.png "") ![Thumbnail](http://img.topddl.net/images/465d0737150ee2d2dd72f94355239958.jpg "") ![Thumbnail E0](http://img.topddl.net/images/7d66ad0a0a67f75312a669126c3284a5.jpg "") ![Thumbnail E0](http://img.topddl.net/images/512638b46047d5894c3cd1e8823d06c3.jpg "") ![Thumbnail E0](http://img.topddl.net/images/00a61f9cd517bc37d48129afa5f60e6f.jpg "") ![Thumbnail E0](http://img.topddl.net/images/8fe8a331cf5fa8c89a953998ddac4db5.jpg "") ![Thumbnail E0](http://img.topddl.net/images/3094fed1011c0b0e2dda018dc4cad9d0.jpg "") ![Thumbnail E0](http://img.topddl.net/images/84c170ab38b5acfc66a5e379c005d5d6.jpg "") ![Thumbnail E0](http://img.topddl.net/images/4bcf10dd1481c7e350ea93d0cfd5f5f3.jpg "") ``` General Unique ID : 155207777221381359662570064524828354036 (0x74C3EE3A2DE016B6FEA225B7716A25F4) Complete name : 3DKanojo.Real.Girl.2018.1080p.BluRay.REMUX.AVC.DTS-HD.MA5.1-NSBC.mkv Format : Matroska Format version : Version 4 File size : 22.7 GiB Duration : 1 h 54 min Overall bit rate mode : Variable Overall bit rate : 28.3 Mb/s Movie name : 3DKanojo.Real.Girl.2018.1080p.BluRay.REMUX.AVC.DTS-HD.MA5.1-NSBC Encoded date : UTC 2019-04-09 05:21:15 Writing application : mkvmerge v32.0.0 ('Astral Progressions') 64-bit Writing library : libebml v1.3.7 + libmatroska v1.5.0 Comment : ZeC | NSBC Video ID : 1 Format : AVC Format/Info : Advanced Video Codec Format profile : High@L4.1 Format settings : CABAC / 4 Ref Frames Format settings, CABAC : Yes Format settings, RefFrames : 4 frames Codec ID : V_MPEG4/ISO/AVC Duration : 1 h 54 min Bit rate mode : Variable Bit rate : 24.4 Mb/s Maximum bit rate : 36.5 Mb/s Width : 1 920 pixels Height : 1 080 pixels Display aspect ratio : 16:9 Frame rate mode : Constant Frame rate : 23.976 (24000/1001) FPS Color space : YUV Chroma subsampling : 4:2:0 Bit depth : 8 bits Scan type : Progressive Bits/(Pixel*Frame) : 0.491 Stream size : 19.6 GiB (86%) Default : No Forced : No Audio ID : 2 Format : DTS XLL Format/Info : Digital Theater Systems Commercial name : DTS-HD Master Audio Codec ID : A_DTS Duration : 1 h 54 min Bit rate mode : Variable Bit rate : 3 905 kb/s Channel(s) : 6 channels Channel layout : C L R Ls Rs LFE Sampling rate : 48.0 kHz Frame rate : 93.750 FPS (512 SPF) Bit depth : 24 bits Compression mode : Lossless Stream size : 3.13 GiB (14%) Language : Japanese Default : No Forced : No Text ID : 3 Format : ASS Codec ID : S_TEXT/ASS Codec ID/Info : Advanced Sub Station Alpha Duration : 1 h 54 min Bit rate : 92 b/s Count of elements : 1363 Compression mode : Lossless Stream size : 77.9 KiB (0%) Language : Indonesian Default : Yes Forced : No ```

File list

  • 3DKanojo.Real.Girl.2018.1080p.BluRay.REMUX.AVC.DTS-HD.MA5.1-NSBC.mkv (22.7 GiB)