Prinzessin.Mononoke.1997.German.DL.1080p.BluRay.x264-CONTRiBUTiON

Category:
Date:
2019-04-07 15:34 UTC
Submitter:
Seeders:
1
Information:
No information.
Leechers:
0
File size:
7.2 GiB
Completed:
44
Info hash:
9dfee6b74a254293d3f22da82216dd62fdce2a1f
General Complete name : E:\ghibli\deutsch\Prinzessin.Mononoke.1997.German.DL.1080p.BluRay.x264-CONTRiBUTiON.mkv Format : Matroska Format version : Version 2 File size : 7.24 GiB Duration : 2 h 13 min Overall bit rate : 7 773 kb/s Writing application : mkvmerge v4.1.1 ('Bouncin' Back') built on Jul 3 2010 22:54:08 Writing library : libebml v1.0.0 + libmatroska v1.0 Video ID : 1 Format : AVC Format/Info : Advanced Video Codec Format profile : High@L4.1 Format settings : CABAC / 4 Ref Frames Format settings, CABAC : Yes Format settings, RefFrames : 4 frames Codec ID : V_MPEG4/ISO/AVC Duration : 2 h 13 min Bit rate : 5 918 kb/s Width : 1 920 pixels Height : 1 040 pixels Display aspect ratio : 1.85:1 Frame rate mode : Constant Frame rate : 23.976 (24000/1001) FPS Color space : YUV Chroma subsampling : 4:2:0 Bit depth : 8 bits Scan type : Progressive Bits/(Pixel*Frame) : 0.124 Stream size : 5.51 GiB (76%) Writing library : x264 core 140 r2377 1ca7bb9 Encoding settings : cabac=1 / ref=4 / deblock=1:-3:-3 / analyse=0x3:0x113 / me=umh / subme=8 / psy=1 / psy_rd=1.00:0.15 / mixed_ref=1 / me_range=16 / chroma_me=1 / trellis=1 / 8x8dct=1 / cqm=0 / deadzone=21,11 / fast_pskip=0 / chroma_qp_offset=-3 / threads=18 / lookahead_threads=3 / sliced_threads=0 / nr=0 / decimate=1 / interlaced=0 / bluray_compat=0 / constrained_intra=0 / bframes=3 / b_pyramid=2 / b_adapt=2 / b_bias=0 / direct=3 / weightb=1 / open_gop=0 / weightp=2 / keyint=240 / keyint_min=24 / scenecut=40 / intra_refresh=0 / rc_lookahead=50 / rc=crf / mbtree=1 / crf=20.0 / qcomp=0.60 / qpmin=0 / qpmax=69 / qpstep=4 / ip_ratio=1.40 / aq=1:1.00 Language : English Default : Yes Forced : No Audio #1 ID : 2 Format : AC-3 Format/Info : Audio Coding 3 Commercial name : Dolby Digital Codec ID : A_AC3 Duration : 2 h 13 min Bit rate mode : Constant Bit rate : 192 kb/s Channel(s) : 6 channels Channel(s)_Original : 2 channels Channel layout : L R Sampling rate : 48.0 kHz Frame rate : 31.250 FPS (1536 SPF) Bit depth : 16 bits Compression mode : Lossy Stream size : 183 MiB (2%) Language : German Service kind : Complete Main Default : Yes Forced : No Audio #2 ID : 3 Format : DTS Format/Info : Digital Theater Systems Codec ID : A_DTS Duration : 2 h 13 min Bit rate mode : Constant Bit rate : 1 509 kb/s Channel(s) : 6 channels Channel layout : C L R Ls Rs LFE Sampling rate : 48.0 kHz Frame rate : 93.750 FPS (512 SPF) Bit depth : 24 bits Compression mode : Lossy Stream size : 1.41 GiB (19%) Language : Japanese Default : Yes Forced : No Menu 00:00:00.000 : en:00:00:00.000 00:01:09.194 : en:00:01:09.194 00:07:31.034 : en:00:07:31.034 00:12:27.246 : en:00:12:27.246 00:18:47.376 : en:00:18:47.376 00:23:12.933 : en:00:23:12.933 00:28:48.852 : en:00:28:48.852 00:32:54.347 : en:00:32:54.347 00:38:44.781 : en:00:38:44.781 00:44:17.113 : en:00:44:17.113 00:49:39.184 : en:00:49:39.184 00:54:40.694 : en:00:54:40.694 00:59:35.864 : en:00:59:35.864 01:05:06.319 : en:01:05:06.319 01:07:44.352 : en:01:07:44.352 01:12:41.983 : en:01:12:41.983 01:17:24.431 : en:01:17:24.431 01:22:26.566 : en:01:22:26.566 01:27:24.281 : en:01:27:24.281 01:33:21.429 : en:01:33:21.429 01:38:19.143 : en:01:38:19.143 01:43:08.307 : en:01:43:08.307 01:48:14.488 : en:01:48:14.488 01:52:27.240 : en:01:52:27.240 01:57:30.210 : en:01:57:30.210 02:02:37.225 : en:02:02:37.225 02:05:21.305 : en:02:05:21.305 02:08:31.203 : en:02:08:31.203

File list

  • Prinzessin.Mononoke.1997.German.DL.1080p.BluRay.x264-CONTRiBUTiON.mkv (7.2 GiB)