Chihiros.Reise.ins.Zauberland.2001.German.DL.1080p.BluRay.x264-CONTRiBUTiON

Category:
Date:
2019-04-07 15:31 UTC
Submitter:
Seeders:
1
Information:
No information.
Leechers:
0
File size:
5.9 GiB
Completed:
65
Info hash:
6489dcbd58ccbb8a5a7f2b8f449eb04419c5896d
General Unique ID : 192664607328411495044153044747014581473 (0x90F1DA88A883F71C8B58FDC5AC1B2CE1) Complete name : E:\ghibli\deutsch\Chihiros.Reise.ins.Zauberland.2001.German.DL.1080p.BluRay.x264-CONTRiBUTiON.mkv Format : Matroska Format version : Version 2 File size : 5.92 GiB Duration : 2 h 4 min Overall bit rate : 6 800 kb/s Encoded date : UTC 2014-07-17 23:48:24 Writing application : mkvmerge v7.0.0 ('Where We Going') 32bit built on Jun 9 2014 15:08:34 Writing library : libebml v1.3.0 + libmatroska v1.4.1 Video ID : 1 Format : AVC Format/Info : Advanced Video Codec Format profile : High@L4.1 Format settings : CABAC / 4 Ref Frames Format settings, CABAC : Yes Format settings, RefFrames : 4 frames Codec ID : V_MPEG4/ISO/AVC Duration : 2 h 4 min Bit rate : 4 840 kb/s Width : 1 920 pixels Height : 1 040 pixels Display aspect ratio : 1.85:1 Frame rate mode : Constant Frame rate : 23.976 (24000/1001) FPS Color space : YUV Chroma subsampling : 4:2:0 Bit depth : 8 bits Scan type : Progressive Bits/(Pixel*Frame) : 0.101 Stream size : 4.21 GiB (71%) Writing library : x264 core 142 r2431 ac76440 Encoding settings : cabac=1 / ref=4 / deblock=1:-3:-3 / analyse=0x3:0x113 / me=umh / subme=8 / psy=1 / psy_rd=1.00:0.15 / mixed_ref=1 / me_range=16 / chroma_me=1 / trellis=1 / 8x8dct=1 / cqm=0 / deadzone=21,11 / fast_pskip=0 / chroma_qp_offset=-3 / threads=18 / lookahead_threads=3 / sliced_threads=0 / nr=0 / decimate=1 / interlaced=0 / bluray_compat=0 / constrained_intra=0 / bframes=3 / b_pyramid=2 / b_adapt=2 / b_bias=0 / direct=3 / weightb=1 / open_gop=0 / weightp=2 / keyint=240 / keyint_min=24 / scenecut=40 / intra_refresh=0 / rc_lookahead=50 / rc=crf / mbtree=1 / crf=20.0 / qcomp=0.60 / qpmin=0 / qpmax=69 / qpstep=4 / ip_ratio=1.40 / aq=1:1.00 Language : English Default : Yes Forced : No Audio #1 ID : 2 Format : AC-3 Format/Info : Audio Coding 3 Commercial name : Dolby Digital Codec ID : A_AC3 Duration : 2 h 4 min Bit rate mode : Constant Bit rate : 448 kb/s Channel(s) : 6 channels Channel layout : L R C LFE Ls Rs Sampling rate : 48.0 kHz Frame rate : 31.250 FPS (1536 SPF) Bit depth : 16 bits Compression mode : Lossy Stream size : 399 MiB (7%) Language : German Service kind : Complete Main Default : Yes Forced : No Audio #2 ID : 3 Format : DTS ES XXCH Format/Info : Digital Theater Systems Commercial name : DTS-ES Discrete Codec ID : A_DTS Duration : 2 h 4 min Bit rate mode : Constant Bit rate : 1 509 kb/s Channel(s) : 6 channels Channel(s)_Original : 7 channels Channel layout : C L R Ls Rs Cb LFE Sampling rate : 48.0 kHz Frame rate : 93.750 FPS (512 SPF) Bit depth : 24 bits Compression mode : Lossy Stream size : 1.31 GiB (22%) Language : Japanese Default : No Forced : No Menu 00:00:00.000 : en:00:00:00.000 00:01:39.099 : en:00:01:39.099 00:03:16.238 : en:00:03:16.238 00:07:23.526 : en:00:07:23.526 00:10:45.395 : en:00:10:45.395 00:17:03.022 : en:00:17:03.022 00:22:48.534 : en:00:22:48.534 00:28:36.048 : en:00:28:36.048 00:33:28.173 : en:00:33:28.173 00:38:21.674 : en:00:38:21.674 00:44:11.816 : en:00:44:11.816 00:48:26.821 : en:00:48:26.821 00:54:31.351 : en:00:54:31.351 01:02:09.017 : en:01:02:09.017 01:08:11.587 : en:01:08:11.587 01:14:36.847 : en:01:14:36.847 01:19:10.579 : en:01:19:10.579 01:25:39.760 : en:01:25:39.760 01:31:18.890 : en:01:31:18.890 01:37:33.806 : en:01:37:33.806 01:45:18.937 : en:01:45:18.937 01:50:25.118 : en:01:50:25.118 01:52:51.098 : en:01:52:51.098 01:55:14.199 : en:01:55:14.199 02:00:53.580 : en:02:00:53.580

File list

  • Chihiros.Reise.ins.Zauberland.2001.German.DL.1080p.BluRay.x264-CONTRiBUTiON.mkv (5.9 GiB)