[Tess] Okusama ga Seitokaichou! S1+S2+OVA [BD 1920x1080 HEVC FLAC]

Category:
Date:
2019-04-04 23:15 UTC
Submitter:
Seeders:
11
Information:
No information.
Leechers:
1
File size:
10.1 GiB
Completed:
2126
Info hash:
1376b59c2e33eb309426c6a8327439d7932f1aeb
Video Source: VCB-Studio Subs: DDY (DameDesuYo) - S1+S2 (retimed), Ganbarou - OVA Mediainfo: >General >Unique ID : 33240725208204884912447561979381272955 (0x1901EE493F45C8FC108B2038DCBDD17B) >Complete name : [Tess] Okusama ga Seitokaichou! - 01 [BD 1920x1080 HEVC FLAC][C3127183].mkv >Format : Matroska >Format version : Version 4 / Version 2 >File size : 439 MiB >Duration : 8 min 3 s >Overall bit rate mode : Variable >Overall bit rate : 7 608 kb/s >Encoded date : UTC 2019-04-04 19:00:56 >Writing application : mkvmerge v32.0.0 ('Astral Progressions') 64-bit >Writing library : libebml v1.3.7 + libmatroska v1.5.0 >Cover : Yes >Attachments : AdobeHeiti-Kami.ttf / ALEX.ttf / ALEX_.ttf / Amaranth-Bold_0.ttf / A-OTF-TypelaboNStdH-CP.otf / arial.ttf / ArtificeSSK.ttf / bip.ttf / Blambot Pro.ttf / blue highway bd.otf / bluehighv2.ttf / BPreplayBold.otf / BRLNSR.TTF / BrookeShappell10.ttf / brushtype-semibold regular.ttf / Burst_My_Bubble_Regular.ttf / CAC MOOSE.TTF / CAC MOOSE(2).TTF / CALISTB.TTF / ChalkDust_Regular.ttf / cinnamon cake.ttf / CompassBold.ttf / CompassBold_0.ttf / contm.ttf / cover.png / DejaVuSansCondensed-Bold.ttf / FatTip.TTF / FatTip(1).TTF / FRAHV.TTF / FranKleinBold.ttf / FromWhereYouAre_0.ttf / GINKO.TTF / GJ-Seurat B(1).ttf / HeiseiMaruGoStd-W4 -TT(1).ttf / Hercules.ttf / HighlanderStd-Medium.otf / ITCKRIST.TTF / JandaManateeSolid_0.ttf / JordFont(1).ttf / JOSHF_0.TTF / Joshiraku v9.ttf / Joshiraku v9(1).ttf / Joshiraku v9_0.ttf / LEHN138(1).TTF / LEHN160.TTF / LEHN177.TTF / LEHN255_1.TTF / LONGISLA.TTF / LONGISLA(1).TTF / LONGISLA_0.TTF / lt_2.ttf / LT_3.ttf / LT_7.ttf / lt_8.ttf / Marker SD.ttf / Meridiana.ttf / MONOFONTO.TTF / OkayMarker-Regular.ttf / OneDirection_0.ttf / PaperJohnnyEins-Regular_0.otf / prolamina_2_update.ttf / SCHOOL_0.TTF / shark party.ttf / Sketchh.ttf / SWZ721M.ttf / Vesta_Bold_1.ttf > >Video >ID : 1 >Format : HEVC >Format/Info : High Efficiency Video Coding >Format profile : Main 10@L4@High >Codec ID : V_MPEGH/ISO/HEVC >Duration : 8 min 3 s >Bit rate : 6 923 kb/s >Width : 1 920 pixels >Height : 1 080 pixels >Display aspect ratio : 16:9 >Frame rate mode : Constant >Frame rate : 23.976 (24000/1001) FPS >Color space : YUV >Chroma subsampling : 4:2:0 >Bit depth : 10 bits >Bits/(Pixel*Frame) : 0.139 >Stream size : 399 MiB (91%) >Title : VCB-Studio >Writing library : x265 2.4+1-43ce0e82c7e3:[Windows][MSVC 1910][64 bit] 10bit >Encoding settings : cpuid=1173503 / frame-threads=5 / numa-pools=16,0 / wpp / no-pmode / no-pme / no-psnr / no-ssim / log-level=2 / input-csp=1 / input-res=1920x1080 / interlace=0 / total-frames=0 / level-idc=0 / high-tier=1 / uhd-bd=0 / ref=4 / no-allow-non-conformance / no-repeat-headers / annexb / no-aud / no-hrd / info / hash=0 / no-temporal-layers / no-open-gop / min-keyint=1 / keyint=480 / bframes=6 / b-adapt=2 / b-pyramid / bframe-bias=0 / rc-lookahead=72 / lookahead-slices=4 / scenecut=40 / no-intra-refresh / ctu=32 / min-cu-size=8 / no-rect / no-amp / max-tu-size=32 / tu-inter-depth=2 / tu-intra-depth=2 / limit-tu=4 / rdoq-level=2 / dynamic-rd=0.00 / no-ssim-rd / signhide / no-tskip / nr-intra=0 / nr-inter=0 / no-constrained-intra / no-strong-intra-smoothing / max-merge=5 / limit-refs=0 / limit-modes / me=3 / subme=5 / merange=44 / temporal-mvp / weightp / weightb / no-analyze-src-pics / deblock=-2:-2 / no-sao / no-sao-non-deblock / rd=5 / no-early-skip / rskip / no-fast-intra / no-tskip-fast / no-cu-lossless / b-intra / rdpenalty=0 / psy-rd=2.00 / psy-rdoq=1.00 / no-rd-refine / analysis-mode=0 / no-lossless / cbqpoffs=-4 / crqpoffs=-4 / rc=crf / crf=14.0 / qcomp=0.65 / qpstep=4 / stats-write=0 / stats-read=0 / vbv-maxrate=30000 / vbv-bufsize=35000 / vbv-init=0.9 / crf-max=32.0 / crf-min=0.0 / ipratio=1.40 / pbratio=1.30 / aq-mode=3 / aq-strength=1.00 / cutree / zone-count=0 / no-strict-cbr / qg-size=16 / no-rc-grain / qpmax=32 / qpmin=0 / sar=0 / overscan=0 / videoformat=5 / range=0 / colorprim=2 / transfer=2 / colormatrix=1 / chromaloc=0 / display-window=0 / max-cll=0,0 / min-luma=0 / max-luma=1023 / log2-max-poc-lsb=8 / vui-timing-info / vui-hrd-info / slices=1 / opt-qp-pps / opt-ref-list-length-pps / no-multi-pass-opt-rps / scenecut-bias=0.05 / no-opt-cu-delta-qp / no-aq-motion / no-hdr / no-hdr-opt / no-dhdr10-opt / refine-level=5 / no-limit-sao >Default : Yes >Forced : No >Color range : Limited >Matrix coefficients : BT.709 > >Audio >ID : 2 >Format : FLAC >Format/Info : Free Lossless Audio Codec >Codec ID : A_FLAC >Duration : 8 min 3 s >Bit rate mode : Variable >Bit rate : 573 kb/s >Channel(s) : 2 channels >Channel positions : Front: L R >Sampling rate : 48.0 kHz >Frame rate : 11.719 FPS (4096 SPF) >Bit depth : 16 bits >Stream size : 33.1 MiB (8%) >Writing library : libFLAC 1.3.2 (UTC 2017-01-01) >Language : Japanese >Default : Yes >Forced : No > >Text >ID : 3 >Format : ASS >Codec ID : S_TEXT/ASS >Codec ID/Info : Advanced Sub Station Alpha >Duration : 7 min 59 s >Bit rate : 5 216 b/s >Count of elements : 1341 >Compression mode : Lossless >Stream size : 306 KiB (0%) >Title : DDY >Language : English >Default : Yes >Forced : No > >Menu >00:00:00.033 : en:Intro >00:00:26.790 : en:OP >00:00:56.820 : en:Main >00:07:33.720 : en:Ending > >

File list

  • [Tess] Okusama ga Seitokaichou! S1+S2+OVA [BD 1920x1080 HEVC FLAC]
    • Season 1
      • [Tess] Okusama ga Seitokaichou! - 01 [BD 1920x1080 HEVC FLAC][C3127183].mkv (438.9 MiB)
      • [Tess] Okusama ga Seitokaichou! - 02 [BD 1920x1080 HEVC FLAC][44D332F5].mkv (514.4 MiB)
      • [Tess] Okusama ga Seitokaichou! - 03 [BD 1920x1080 HEVC FLAC][5D1F12EC].mkv (494.7 MiB)
      • [Tess] Okusama ga Seitokaichou! - 04 [BD 1920x1080 HEVC FLAC][0ACDF1BB].mkv (539.5 MiB)
      • [Tess] Okusama ga Seitokaichou! - 05 [BD 1920x1080 HEVC FLAC][B00E3206].mkv (331.6 MiB)
      • [Tess] Okusama ga Seitokaichou! - 06 [BD 1920x1080 HEVC FLAC][EF31A29B].mkv (366.1 MiB)
      • [Tess] Okusama ga Seitokaichou! - 07 [BD 1920x1080 HEVC FLAC][821FA380].mkv (419.1 MiB)
      • [Tess] Okusama ga Seitokaichou! - 08 [BD 1920x1080 HEVC FLAC][34876789].mkv (406.2 MiB)
      • [Tess] Okusama ga Seitokaichou! - 09 [BD 1920x1080 HEVC FLAC][315F1041].mkv (374.3 MiB)
      • [Tess] Okusama ga Seitokaichou! - 10 [BD 1920x1080 HEVC FLAC][096E26DC].mkv (394.1 MiB)
      • [Tess] Okusama ga Seitokaichou! - 11 [BD 1920x1080 HEVC FLAC][9F942588].mkv (401.9 MiB)
      • [Tess] Okusama ga Seitokaichou! - 12 [BD 1920x1080 HEVC FLAC][A93B4776].mkv (413.4 MiB)
      • [Tess] Okusama ga Seitokaichou! - OVA [DVD 1280x720 HEVC FLAC][080E1E5B].mkv (353.3 MiB)
    • Season 2
      • [Tess] Okusama ga Seitokaichou!+! - 01 [BD 1920x1080 HEVC FLAC][84C35260].mkv (343.2 MiB)
      • [Tess] Okusama ga Seitokaichou!+! - 02 [BD 1920x1080 HEVC FLAC][F1041E84].mkv (373.8 MiB)
      • [Tess] Okusama ga Seitokaichou!+! - 03 [BD 1920x1080 HEVC FLAC][24227884].mkv (400.9 MiB)
      • [Tess] Okusama ga Seitokaichou!+! - 04 [BD 1920x1080 HEVC FLAC][768480CD].mkv (563.1 MiB)
      • [Tess] Okusama ga Seitokaichou!+! - 05 [BD 1920x1080 HEVC FLAC][C6339177].mkv (552.8 MiB)
      • [Tess] Okusama ga Seitokaichou!+! - 06 [BD 1920x1080 HEVC FLAC][95A29B3E].mkv (478.1 MiB)
      • [Tess] Okusama ga Seitokaichou!+! - 07 [BD 1920x1080 HEVC FLAC][42BD1565].mkv (460.0 MiB)
      • [Tess] Okusama ga Seitokaichou!+! - 08 [BD 1920x1080 HEVC FLAC][9299BB66].mkv (328.2 MiB)
      • [Tess] Okusama ga Seitokaichou!+! - 09 [BD 1920x1080 HEVC FLAC][DA6F823E].mkv (364.6 MiB)
      • [Tess] Okusama ga Seitokaichou!+! - 10 [BD 1920x1080 HEVC FLAC][5462DEEB].mkv (331.8 MiB)
      • [Tess] Okusama ga Seitokaichou!+! - 11 [BD 1920x1080 HEVC FLAC][5D0ECAFC].mkv (381.0 MiB)
      • [Tess] Okusama ga Seitokaichou!+! - 12 [BD 1920x1080 HEVC FLAC][65E4E7E4].mkv (281.7 MiB)
ouch!! THE OVA!!!! thank you for you contribution @Tesseract
"DVD source video is limited to 1024x576p"

Tesseract (uploader)

User
@Draconiano I'm aware of that rule unfortunately this was the resolution used by the VCB-Studio encode I used as a source which misreported the file resolution as 576p in the file name. I figured re-encoding it to downscale it would just degrade the quality and take far too much time, so just decided to leave it.
HEVC FLAC best girl
Is this uncensored?
@**Tamaki** Yes, it's uncensored. Also, Thank You! Will seed indefinitely. And as a reminder, # **PLS SEED AFTER DOWNLOAD!** ###### (Same Comment as others which I had downloaded. Hehe) Oppai.
If this is dead (no seeds), contact me thru my [**email**](mailto:worldatarmsxd@gmail.com?subject=Reseeding%20or%20DDL&body=%5Bshort%20info%20about%20the%20torrrent%5D)
You did not re encode VCB release right? Because it look like youbjust removed the audio commentary and added the subs, am I right?