[ToishY] Memories (1995) [1080P MP4]

Category:
Date:
2019-03-31 22:35 UTC
Submitter:
Seeders:
4
Information:
No information.
Leechers:
1
File size:
4.4 GiB
Completed:
1341
Info hash:
5a7378a5ebb17129610003cab3c6a82935acda20
The hardcoded & rescaled MP4 versions of [my previous release](https://nyaa.si/view/1130340). Hardcoded and rescaled to X-by-1080 pixels (kept aspect ratio) using lanczos as scaling algorithm with FFmpeg ``` ffmpeg -i "[ToishY] Memories - 01.mkv" -c:v libx264 -pix_fmt yuv420p -crf 18 -preset slow -tune animation -profile:v high -level:v 4.0 -vf scale="-2:1080:flags=lanczos, subtitles='[ToishY] Memories - 01.mkv'" -c:a aac -strict 2 -ab 192k -ar 48k -ac 2 "[ToishY] Memories - 01 [1080P].mp4" ``` Result: ``` General Complete name : F:\[ToishY] Memories - 01 [1080P].mp4 Format : MPEG-4 Format profile : Base Media Codec ID : isom (isom/iso2/avc1/mp41) File size : 1.44 GiB Duration : 44 min 21 s Overall bit rate : 4 662 kb/s Writing application : Lavf57.83.100 Video ID : 1 Format : AVC Format/Info : Advanced Video Codec Format profile : High@L4 Format settings : CABAC / 4 Ref Frames Format settings, CABAC : Yes Format settings, RefFrames : 4 frames Format settings, GOP : M=6, N=12 Codec ID : avc1 Codec ID/Info : Advanced Video Coding Duration : 44 min 21 s Bit rate : 4 462 kb/s Width : 1 960 pixels Height : 1 080 pixels Display aspect ratio : 16:9 Frame rate mode : Constant Frame rate : 23.976 (24000/1001) FPS Color space : YUV Chroma subsampling : 4:2:0 Bit depth : 8 bits Scan type : Progressive Bits/(Pixel*Frame) : 0.088 Stream size : 1.38 GiB (96%) Writing library : x264 core 152 r2854 e9a5903 Encoding settings : cabac=1 / ref=3 / deblock=1:1:1 / analyse=0x3:0x113 / me=hex / subme=8 / psy=1 / psy_rd=0.40:0.00 / mixed_ref=1 / me_range=16 / chroma_me=1 / trellis=2 / 8x8dct=1 / cqm=0 / deadzone=21,11 / fast_pskip=1 / chroma_qp_offset=-2 / threads=12 / lookahead_threads=2 / sliced_threads=0 / nr=0 / decimate=1 / interlaced=0 / bluray_compat=0 / constrained_intra=0 / bframes=5 / b_pyramid=2 / b_adapt=1 / b_bias=0 / direct=3 / weightb=1 / open_gop=0 / weightp=2 / keyint=250 / keyint_min=23 / scenecut=40 / intra_refresh=0 / rc_lookahead=50 / rc=crf / mbtree=1 / crf=18.0 / qcomp=0.60 / qpmin=0 / qpmax=69 / qpstep=4 / ip_ratio=1.40 / aq=1:0.60 Language : English Codec configuration box : avcC Audio ID : 2 Format : AAC LC Format/Info : Advanced Audio Codec Low Complexity Codec ID : mp4a-40-2 Duration : 44 min 21 s Bit rate mode : Constant Bit rate : 192 kb/s Channel(s) : 2 channels Channel layout : L R Sampling rate : 48.0 kHz Frame rate : 46.875 FPS (1024 SPF) Compression mode : Lossy Stream size : 61.7 MiB (4%) Language : Japanese Default : Yes Alternate group : 1 ``` Compatible with most devices, consoles, webplayers, etc... P.S. I know upscaling is normally a bad idea, but it's only scaled +/- 1.1x, so visually you probably won't notice any loss and it's much easier for most (web)players to recognize it as 1080P like this.

File list

  • Memories (1995) [MP4 1080P]
    • [ToishY] Memories - 01 [1080P].mp4 (1.4 GiB)
    • [ToishY] Memories - 02 [1080P].mp4 (2.2 GiB)
    • [ToishY] Memories - 03 [1080P].mp4 (780.0 MiB)