Tokyo.Ghoul.S01.1080p.Blu-Ray.10-Bit.Dub.EAC3.x265

Category:
Date:
2019-03-31 16:17 UTC
Submitter:
Seeders:
2
Information:
No information.
Leechers:
5
File size:
12.7 GiB
Completed:
310
Info hash:
8d59c99ec75e1e68f61ec2783bcf6f9b057d4eb1
Video ID : 1 Format : HEVC Format/Info : High Efficiency Video Coding Format profile : Main 10@L5@Main Codec ID : V_MPEGH/ISO/HEVC Duration : 26 min 1 s Bit rate : 3 246 kb/s Width : 1 920 pixels Height : 1 080 pixels Display aspect ratio : 16:9 Frame rate mode : Constant Frame rate : 23.976 (23976/1000) FPS Color space : YUV Chroma subsampling : 4:2:0 (Type 0) Bit depth : 10 bits Bits/(Pixel*Frame) : 0.065 Stream size : 604 MiB (57%) Writing library : x265 2.9+34-17120cfb5c99:[Windows][ICC 1900][64 bit] 10bit Encoding settings : cpuid=1111039 / frame-threads=4 / numa-pools=16 / wpp / no-pmode / no-pme / no-psnr / no-ssim / log-level=2 / input-csp=1 / input-res=1920x1080 / interlace=0 / total-frames=37449 / level-idc=0 / high-tier=1 / uhd-bd=0 / ref=6 / no-allow-non-conformance / no-repeat-headers / annexb / no-aud / no-hrd / info / hash=0 / no-temporal-layers / open-gop / min-keyint=24 / keyint=240 / gop-lookahead=0 / bframes=16 / b-adapt=2 / b-pyramid / bframe-bias=0 / rc-lookahead=50 / lookahead-slices=4 / scenecut=40 / radl=0 / no-splice / no-intra-refresh / ctu=32 / min-cu-size=8 / rect / no-amp / max-tu-size=32 / tu-inter-depth=1 / tu-intra-depth=3 / limit-tu=0 / rdoq-level=2 / dynamic-rd=0.00 / no-ssim-rd / signhide / tskip / nr-intra=0 / nr-inter=0 / no-constrained-intra / strong-intra-smoothing / max-merge=3 / limit-refs=3 / limit-modes / me=3 / subme=3 / merange=57 / temporal-mvp / weightp / no-weightb / no-analyze-src-pics / deblock=0:0 / sao / no-sao-non-deblock / rd=4 / no-early-skip / rskip / no-fast-intra / tskip-fast / no-cu-lossless / no-b-intra / no-splitrd-skip / rdpenalty=0 / psy-rd=2.00 / psy-rdoq=1.00 / no-rd-refine / no-lossless / cbqpoffs=0 / crqpoffs=0 / rc=crf / crf=16.0 / qcomp=0.60 / qpstep=4 / stats-write=0 / stats-read=0 / ipratio=1.40 / pbratio=1.30 / aq-mode=3 / aq-strength=0.80 / cutree / zone-count=0 / no-strict-cbr / qg-size=32 / no-rc-grain / qpmax=69 / qpmin=0 / no-const-vbv / sar=1 / overscan=0 / videoformat=5 / range=0 / colorprim=1 / transfer=1 / colormatrix=1 / chromaloc=1 / chromaloc-top=0 / chromaloc-bottom=0 / display-window=0 / max-cll=0,0 / min-luma=0 / max-luma=1023 / log2-max-poc-lsb=8 / vui-timing-info / vui-hrd-info / slices=1 / no-opt-qp-pps / no-opt-ref-list-length-pps / no-multi-pass-opt-rps / scenecut-bias=0.00 / no-opt-cu-delta-qp / no-aq-motion / no-hdr / no-hdr-opt / no-dhdr10-opt / no-idr-recovery-sei / analysis-reuse-level=5 / scale-factor=0 / refine-intra=0 / refine-inter=0 / refine-mv=0 / refine-ctu-distortion=0 / no-limit-sao / ctu-info=0 / no-lowpass-dct / refine-analysis-type=0 / copy-pic=1 / max-ausize-factor=1.0 / no-dynamic-refine / no-single-sei / no-hevc-aq / qp-adaptation-range=1.00 Default : Yes Forced : No Color range : Limited Color primaries : BT.709 Transfer characteristics : BT.709 Matrix coefficients : BT.709 Audio ID : 2 Format : E-AC-3 Format/Info : Enhanced AC-3 Commercial name : Dolby Digital Plus Codec ID : A_EAC3 Duration : 26 min 2 s Bit rate mode : Constant Bit rate : 2 481 kb/s Channel(s) : 6 channels Channel layout : L R C LFE Ls Rs Sampling rate : 48.0 kHz Frame rate : 93.750 FPS (512 SPF) Compression mode : Lossy Stream size : 462 MiB (43%) Language : English Service kind : Complete Main Default : Yes Forced : No Text ID : 3 Format : UTF-8 Codec ID : S_TEXT/UTF8 Codec ID/Info : UTF-8 Plain Text Duration : 23 min 35 s Bit rate : 10 b/s Count of elements : 50 Stream size : 1.78 KiB (0%) Title : Signs Language : English Default : Yes Forced : No

File list

  • Tokyo Ghoul Season 1
    • Tokyo Ghoul - 01 - Tragedy (1080p HEVC).mkv (1.0 GiB)
    • Tokyo Ghoul - 02 - Incubation (1080p HEVC).mkv (954.6 MiB)
    • Tokyo Ghoul - 03 - Dove (1080p HEVC).mkv (958.8 MiB)
    • Tokyo Ghoul - 04 - Supper (1080p HEVC).mkv (1.0 GiB)
    • Tokyo Ghoul - 05 - Scars (1080p HEVC).mkv (1007.5 MiB)
    • Tokyo Ghoul - 06 - Cloudburst (1080p HEVC).mkv (1.2 GiB)
    • Tokyo Ghoul - 07 - Captivity (1080p HEVC).mkv (1.1 GiB)
    • Tokyo Ghoul - 08 - Circular (1080p HEVC).mkv (1.3 GiB)
    • Tokyo Ghoul - 09 - Birdcage (1080p HEVC).mkv (1023.1 MiB)
    • Tokyo Ghoul - 10 - Aogiri (1080p HEVC).mkv (1.0 GiB)
    • Tokyo Ghoul - 11 - High Spirits (1080p HEVC).mkv (1.1 GiB)
    • Tokyo Ghoul - 12 - Ghoul (1080p HEVC).mkv (1.1 GiB)