[NSBC] Hyouka 2017 [BluRay REMUX] [1080p]

Category:
Date:
2019-03-26 08:40 UTC
Submitter:
Seeders:
1
Information:
TlNCQy50bw==
Leechers:
6
File size:
32.2 GiB
Completed:
143
Info hash:
16cc4b8240aa9b6a4491db8fc0ee6874e71a0e62
> #### Just in case there's no seeder just download in [here](http://idfl.top/file/3c46be) ![POSTER](http://img.topddl.net/images/c26da51049ff2d51237bc410d2dd09ea.jpg "") ![Pict](http://img.topddl.net/images/2aac63e89ef0b44196c3b6503d23e0f5.jpg "") ![Pict](http://img.topddl.net/images/cdda8a71a1143d961fa8ec2625df35ae.jpg "") ![Pict](http://img.topddl.net/images/bba220daefe3172d0f54eee3e2d3469a.jpg "") ![Pict](http://img.topddl.net/images/80ab3a369f3022eb847481bbbbae716e.jpg "") ![Pict](http://img.topddl.net/images/d5b24cfe6c29d6f59246cc00dd9caa79.jpg "") ![Pict](http://img.topddl.net/images/3f252e13c5e857c924b507141c401ef5.jpg "") ``` General Unique ID : 9653354671096472133172068371754983045 (0x7432B21AB0D35F83596662D257D1E85) Complete name : Hyouka.2017.1080p.BluRay.REMUX.AVC.DTS-HD.MA.5.1-NSBC.mkv Format : Matroska Format version : Version 4 File size : 32.2 GiB Duration : 1 h 54 min Overall bit rate mode : Variable Overall bit rate : 40.4 Mb/s Movie name : Hyouka.2017.1080p.BluRay.REMUX.AVC.DTS-HD.MA.5.1-NSBC Encoded date : UTC 2019-03-26 04:03:39 Writing application : mkvmerge v32.0.0 ('Astral Progressions') 64-bit Writing library : libebml v1.3.7 + libmatroska v1.5.0 Comment : ZeC | NSBC Video ID : 1 Format : AVC Format/Info : Advanced Video Codec Format profile : High@L4.1 Format settings : CABAC / 4 Ref Frames Format settings, CABAC : Yes Format settings, RefFrames : 4 frames Codec ID : V_MPEG4/ISO/AVC Duration : 1 h 54 min Bit rate mode : Variable Bit rate : 36.7 Mb/s Maximum bit rate : 39.0 Mb/s Width : 1 920 pixels Height : 1 080 pixels Display aspect ratio : 16:9 Frame rate mode : Constant Frame rate : 23.976 (24000/1001) FPS Color space : YUV Chroma subsampling : 4:2:0 Bit depth : 8 bits Scan type : Progressive Bits/(Pixel*Frame) : 0.738 Stream size : 29.3 GiB (91%) Default : Yes Forced : No Audio ID : 2 Format : DTS XLL Format/Info : Digital Theater Systems Commercial name : DTS-HD Master Audio Codec ID : A_DTS Duration : 1 h 54 min Bit rate mode : Variable Bit rate : 3 546 kb/s Channel(s) : 6 channels Channel layout : C L R Ls Rs LFE Sampling rate : 48.0 kHz Frame rate : 93.750 FPS (512 SPF) Bit depth : 24 bits Compression mode : Lossless Stream size : 2.83 GiB (9%) Title : DTS-HD Master Audio Language : Japanese Default : Yes Forced : No Text #1 ID : 3 Format : PGS Muxing mode : zlib Codec ID : S_HDMV/PGS Codec ID/Info : Picture based subtitle format used on BDs/HD-DVDs Duration : 1 h 53 min Bit rate : 221 kb/s Count of elements : 8744 Stream size : 180 MiB (1%) Title : Japanese Language : Japanese Default : No Forced : No Text #2 ID : 4 Format : ASS Codec ID : S_TEXT/ASS Codec ID/Info : Advanced Sub Station Alpha Duration : 1 h 53 min Bit rate : 527 b/s Count of elements : 4428 Compression mode : Lossless Stream size : 439 KiB (0%) Title : English Subtitle by Danderaion Language : English Default : Yes Forced : No ``` ``` English Subtitle by Danderaion ```

File list

  • Hyouka.2017.1080p.BluRay.REMUX.AVC.DTS-HD.MA.5.1-NSBC.mkv (32.2 GiB)
any way to reduce the size?
If you want a low filesize why are you looking at BD Remuxes, tenchi?
<1GB https://nyaa.si/view/1030835

NOSoba (uploader)

User
will reseed this after got a new seedboxes :)

NOSoba (uploader)

User
Here a direct google drive link: [Click This](http://idfl.top/file/3c46be) i will not seeding this anymore :)
Thanks for the share, but since there's no more seeds. What's the code for the http://idfl.top site?

NOSoba (uploader)

User
you need to login first and than it automatically give you a code
I tried downloading from the link and it says "The user has exceeded their Drive storage quota" Edit: Nevermind fixed it by upgrading my storage.