[Arukoru] Mob Psycho 100 II - Episode 11 - Guidance - Psychic Sensor [1080p x265 10bit WEB Multi-Sub AAC]

Category:
Date:
2019-03-19 05:05 UTC
Submitter:
Seeders:
0
Information:
No information.
Leechers:
0
File size:
477.8 MiB
Completed:
354
Info hash:
3e5165929022bc6e73f663912622e39f6aee461d
[![Arukoru-Mob-Psycho-100-II-Episode-11-Guidance-Psychic-Se.png](https://i.postimg.cc/6QhcQKTf/Arukoru-Mob-Psycho-100-II-Episode-11-Guidance-Psychic-Se.png)](https://postimg.cc/06bDtLYz) [![Arukoru-Mob-Psycho-100-II-Episode-11-Guidance-Psychic-Se.png](https://i.postimg.cc/ydQTFTmJ/Arukoru-Mob-Psycho-100-II-Episode-11-Guidance-Psychic-Se.png)](https://postimg.cc/N9XTtmPY) [![Arukoru-Mob-Psycho-100-II-Episode-11-Guidance-Psychic-Se.png](https://i.postimg.cc/8s8MHXjC/Arukoru-Mob-Psycho-100-II-Episode-11-Guidance-Psychic-Se.png)](https://postimg.cc/QKbFNbgL) Format : Matroska Format version : Version 4 File size : 478 MiB Duration : 24 min 11 s Overall bit rate : 2 760 kb/s Encoded date : UTC 2019-03-19 04:34:06 Writing application : mkvmerge v29.0.0 ('Like It Or Not') 64-bit Writing library : libebml v1.3.6 + libmatroska v1.4.9 / Lavf58.20.100 Video ID : 1 Format : HEVC Format/Info : High Efficiency Video Coding Format profile : Main 10@L4@Main Codec ID : V_MPEGH/ISO/HEVC Duration : 24 min 9 s Bit rate : 2 632 kb/s Width : 1 920 pixels Height : 1 080 pixels Display aspect ratio : 16:9 Frame rate mode : Constant Frame rate : 23.976 (24000/1001) FPS Color space : YUV Chroma subsampling : 4:2:0 Bit depth : 10 bits Bits/(Pixel*Frame) : 0.053 Stream size : 455 MiB (95%) Writing library : x265 2.9:[Windows][GCC 7.1.0][64 bit] 10bit Forced : No Color range : Limited Color primaries : BT.709 Transfer characteristics : BT.709 Matrix coefficients : BT.709 Audio ID : 2 Format : AAC LC Format/Info : Advanced Audio Codec Low Complexity Codec ID : A_AAC-2 Duration : 24 min 10 s Bit rate : 128 kb/s Channel(s) : 2 channels Channel layout : L R Sampling rate : 44.1 kHz Frame rate : 43.066 FPS (1024 SPF) Compression mode : Lossy Stream size : 22.1 MiB (5%) Language : Japanese Default : Yes Forced : No Text #1 ID : 3 Format : ASS Codec ID : S_TEXT/ASS Codec ID/Info : Advanced Sub Station Alpha Duration : 24 min 9 s Bit rate : 154 b/s Count of elements : 404 Compression mode : Lossless Stream size : 27.4 KiB (0%) Language : English Default : Yes Forced : Yes Text #2 ID : 4 Format : ASS Codec ID : S_TEXT/ASS Codec ID/Info : Advanced Sub Station Alpha Duration : 24 min 9 s Bit rate : 190 b/s Count of elements : 403 Compression mode : Lossless Stream size : 33.6 KiB (0%) Language : Arabic Default : No Forced : No Text #3 ID : 5 Format : ASS Codec ID : S_TEXT/ASS Codec ID/Info : Advanced Sub Station Alpha Duration : 24 min 10 s Bit rate : 119 b/s Count of elements : 342 Compression mode : Lossless Stream size : 21.2 KiB (0%) Language : Spanish Default : No Forced : No Text #4 ID : 6 Format : ASS Codec ID : S_TEXT/ASS Codec ID/Info : Advanced Sub Station Alpha Duration : 24 min 10 s Bit rate : 119 b/s Count of elements : 343 Compression mode : Lossless Stream size : 21.2 KiB (0%) Title : Mexico Language : Spanish Default : No Forced : No Text #5 ID : 7 Format : ASS Codec ID : S_TEXT/ASS Codec ID/Info : Advanced Sub Station Alpha Duration : 24 min 8 s Bit rate : 146 b/s Count of elements : 348 Compression mode : Lossless Stream size : 25.8 KiB (0%) Language : French Default : No Forced : No Text #6 ID : 8 Format : ASS Codec ID : S_TEXT/ASS Codec ID/Info : Advanced Sub Station Alpha Duration : 24 min 9 s Bit rate : 149 b/s Count of elements : 368 Compression mode : Lossless Stream size : 26.5 KiB (0%) Language : Italian Default : No Forced : No Text #7 ID : 9 Format : ASS Codec ID : S_TEXT/ASS Codec ID/Info : Advanced Sub Station Alpha Duration : 24 min 9 s Bit rate : 163 b/s Count of elements : 404 Compression mode : Lossless Stream size : 28.8 KiB (0%) Language : Portuguese Default : No Forced : No Text #8 ID : 10 Format : ASS Codec ID : S_TEXT/ASS Codec ID/Info : Advanced Sub Station Alpha Duration : 24 min 8 s Bit rate : 200 b/s Count of elements : 415 Compression mode : Lossless Stream size : 35.4 KiB (0%) Language : Russian Default : No Forced : No Source: CR WEB-DL

File list

  • [Arukoru] Mob Psycho 100 II - Episode 11 - Guidance - Psychic Sensor [180p x265 10bit WEB Multi-Sub AAC].mkv (477.8 MiB)
When the rest? Thanks :)