[Arukoru] Manaria Friends (Mysteria Friends) - Episode 09 - A Slice Of Life [1080p x265 10bit WEB Multi-Sub AAC]

Category:
Date:
2019-03-18 03:20 UTC
Submitter:
Seeders:
1
Information:
No information.
Leechers:
0
File size:
165.6 MiB
Completed:
102
Info hash:
65905b16bb405b0efb132146a747d871b05d9152
[![Arukoru-Manaria-Friends-Mysteria-Friends-Episode-09-A-S.png](https://i.postimg.cc/0jFX1XDD/Arukoru-Manaria-Friends-Mysteria-Friends-Episode-09-A-S.png)](https://postimg.cc/64Vfd0Hp) [![Arukoru-Manaria-Friends-Mysteria-Friends-Episode-09-A-S.png](https://i.postimg.cc/44SScyqy/Arukoru-Manaria-Friends-Mysteria-Friends-Episode-09-A-S.png)](https://postimg.cc/yW0j41VC) [![Arukoru-Manaria-Friends-Mysteria-Friends-Episode-09-A-S.png](https://i.postimg.cc/kgrYjZnd/Arukoru-Manaria-Friends-Mysteria-Friends-Episode-09-A-S.png)](https://postimg.cc/hfr0v2zC) Format : Matroska Format version : Version 4 File size : 166 MiB Duration : 15 min 23 s Overall bit rate : 1 503 kb/s Encoded date : UTC 2019-03-18 03:10:13 Writing application : mkvmerge v29.0.0 ('Like It Or Not') 64-bit Writing library : libebml v1.3.6 + libmatroska v1.4.9 / Lavf58.20.100 Video ID : 1 Format : HEVC Format/Info : High Efficiency Video Coding Format profile : Main 10@L4@Main Codec ID : V_MPEGH/ISO/HEVC Duration : 15 min 23 s Bit rate : 1 372 kb/s Width : 1 920 pixels Height : 1 080 pixels Display aspect ratio : 16:9 Frame rate mode : Constant Frame rate : 23.976 (24000/1001) FPS Color space : YUV Chroma subsampling : 4:2:0 Bit depth : 10 bits Bits/(Pixel*Frame) : 0.028 Stream size : 151 MiB (91%) Writing library : x265 2.9:[Windows][GCC 7.1.0][64 bit] 10bit Default : Yes Forced : No Color range : Limited Color primaries : BT.709 Transfer characteristics : BT.709 Matrix coefficients : BT.709 Audio ID : 2 Format : AAC LC Format/Info : Advanced Audio Codec Low Complexity Codec ID : A_AAC-2 Duration : 15 min 23 s Bit rate : 128 kb/s Channel(s) : 2 channels Channel layout : L R Sampling rate : 44.1 kHz Frame rate : 43.066 FPS (1024 SPF) Compression mode : Lossy Stream size : 14.1 MiB (9%) Language : Japanese Default : Yes Forced : No Text #1 ID : 3 Format : ASS Codec ID : S_TEXT/ASS Codec ID/Info : Advanced Sub Station Alpha Duration : 13 min 23 s Bit rate : 72 b/s Count of elements : 107 Compression mode : Lossless Stream size : 7.13 KiB (0%) Language : English Default : Yes Forced : Yes Text #2 ID : 4 Format : ASS Codec ID : S_TEXT/ASS Codec ID/Info : Advanced Sub Station Alpha Duration : 13 min 24 s Bit rate : 87 b/s Count of elements : 101 Compression mode : Lossless Stream size : 8.62 KiB (0%) Language : Arabic Default : No Forced : No Text #3 ID : 5 Format : ASS Codec ID : S_TEXT/ASS Codec ID/Info : Advanced Sub Station Alpha Duration : 13 min 24 s Bit rate : 66 b/s Count of elements : 105 Compression mode : Lossless Stream size : 6.57 KiB (0%) Language : German Default : No Forced : No Text #4 ID : 6 Format : ASS Codec ID : S_TEXT/ASS Codec ID/Info : Advanced Sub Station Alpha Duration : 13 min 18 s Bit rate : 57 b/s Count of elements : 94 Compression mode : Lossless Stream size : 5.57 KiB (0%) Language : Spanish Default : No Forced : No Text #5 ID : 7 Format : ASS Codec ID : S_TEXT/ASS Codec ID/Info : Advanced Sub Station Alpha Duration : 13 min 18 s Bit rate : 56 b/s Count of elements : 94 Compression mode : Lossless Stream size : 5.51 KiB (0%) Title : Mexico Language : Spanish Default : No Forced : No Text #6 ID : 8 Format : ASS Codec ID : S_TEXT/ASS Codec ID/Info : Advanced Sub Station Alpha Duration : 13 min 24 s Bit rate : 69 b/s Count of elements : 104 Compression mode : Lossless Stream size : 6.84 KiB (0%) Language : French Default : No Forced : No Text #7 ID : 9 Format : ASS Codec ID : S_TEXT/ASS Codec ID/Info : Advanced Sub Station Alpha Duration : 13 min 24 s Bit rate : 73 b/s Count of elements : 113 Compression mode : Lossless Stream size : 7.18 KiB (0%) Language : Italian Default : No Forced : No Text #8 ID : 10 Format : ASS Codec ID : S_TEXT/ASS Codec ID/Info : Advanced Sub Station Alpha Duration : 13 min 24 s Bit rate : 70 b/s Count of elements : 111 Compression mode : Lossless Stream size : 6.95 KiB (0%) Language : Portuguese Default : No Forced : No Text #9 ID : 11 Format : ASS Codec ID : S_TEXT/ASS Codec ID/Info : Advanced Sub Station Alpha Duration : 13 min 38 s Bit rate : 98 b/s Count of elements : 107 Compression mode : Lossless Stream size : 9.82 KiB (0%) Language : Russian Default : No Forced : No Source: CR WEB-DL

File list

  • [Arukoru] Manaria Friends (Mysteria Friends) - Episode 09 - A Slice Of Life [1080p x265 10bit WEB Multi-Sub AAC].mkv (165.6 MiB)