[Arukoru] The Quintessential Quintuplets - Episode 07 - Liar McLieface [1080p x265 10bit WEB English Dub AAC]

Category:
Date:
2019-03-15 04:40 UTC
Submitter:
Seeders:
3
Information:
No information.
Leechers:
0
File size:
299.3 MiB
Completed:
57
Info hash:
f5842b6219c91e1032077fa55ee6eb67f0daebe5
[![Arukoru-The-Quintessential-Quintuplets-Episode-07-Liar-Mc-L.png](https://i.postimg.cc/MKxQ9QSF/Arukoru-The-Quintessential-Quintuplets-Episode-07-Liar-Mc-L.png)](https://postimg.cc/t7SJT773) [![Arukoru-The-Quintessential-Quintuplets-Episode-07-Liar-Mc-L.png](https://i.postimg.cc/650Ggp65/Arukoru-The-Quintessential-Quintuplets-Episode-07-Liar-Mc-L.png)](https://postimg.cc/CzR1fYfW) [![Arukoru-The-Quintessential-Quintuplets-Episode-07-Liar-Mc-L.png](https://i.postimg.cc/QMRB1BmS/Arukoru-The-Quintessential-Quintuplets-Episode-07-Liar-Mc-L.png)](https://postimg.cc/Z9xKh51y) Format : Matroska Format version : Version 4 File size : 299 MiB Duration : 24 min 15 s Overall bit rate : 1 726 kb/s Encoded date : UTC 2019-03-15 04:35:21 Writing application : mkvmerge v29.0.0 ('Like It Or Not') 64-bit Writing library : libebml v1.3.6 + libmatroska v1.4.9 / Lavf58.20.100 Video ID : 1 Format : HEVC Format/Info : High Efficiency Video Coding Format profile : Main 10@L4@Main Codec ID : V_MPEGH/ISO/HEVC Duration : 24 min 14 s Bit rate : 1 470 kb/s Width : 1 920 pixels Height : 1 080 pixels Display aspect ratio : 16:9 Frame rate mode : Variable Frame rate : 23.976 (23976/1000) FPS Color space : YUV Chroma subsampling : 4:2:0 Bit depth : 10 bits Bits/(Pixel*Frame) : 0.030 Stream size : 255 MiB (85%) Writing library : x265 2.9:[Windows][GCC 7.1.0][64 bit] 10bit Encoding settings : cpuid=1111039 / frame-threads=2 / numa-pools=4 / wpp / no-pmode / no-pme / no-psnr / no-ssim / log-level=2 / input-csp=1 / input-res=1920x1080 / interlace=0 / total-frames=0 / level-idc=0 / high-tier=1 / uhd-bd=0 / ref=2 / no-allow-non-conformance / no-repeat-headers / annexb / no-aud / no-hrd / info / hash=0 / no-temporal-layers / open-gop / min-keyint=24 / keyint=240 / gop-lookahead=0 / bframes=4 / b-adapt=0 / b-pyramid / bframe-bias=0 / rc-lookahead=15 / lookahead-slices=6 / scenecut=40 / radl=0 / no-intra-refresh / ctu=64 / min-cu-size=8 / no-rect / no-amp / max-tu-size=32 / tu-inter-depth=1 / tu-intra-depth=1 / limit-tu=0 / rdoq-level=0 / dynamic-rd=0.00 / no-ssim-rd / signhide / no-tskip / nr-intra=0 / nr-inter=0 / no-constrained-intra / strong-intra-smoothing / max-merge=2 / limit-refs=3 / no-limit-modes / me=1 / subme=1 / merange=57 / temporal-mvp / weightp / no-weightb / no-analyze-src-pics / deblock=0:0 / sao / no-sao-non-deblock / rd=2 / early-skip / rskip / fast-intra / no-tskip-fast / no-cu-lossless / no-b-intra / no-splitrd-skip / rdpenalty=0 / psy-rd=2.00 / psy-rdoq=0.00 / no-rd-refine / no-lossless / cbqpoffs=0 / crqpoffs=0 / rc=crf / crf=21.0 / qcomp=0.60 / qpstep=4 / stats-write=0 / stats-read=0 / ipratio=1.40 / pbratio=1.30 / aq-mode=1 / aq-strength=1.00 / cutree / zone-count=0 / no-strict-cbr / qg-size=32 / no-rc-grain / qpmax=69 / qpmin=0 / no-const-vbv / sar=1 / overscan=0 / videoformat=5 / range=0 / colorprim=1 / transfer=1 / colormatrix=1 / chromaloc=0 / display-window=0 / max-cll=0,0 / min-luma=0 / max-luma=1023 / log2-max-poc-lsb=8 / vui-timing-info / vui-hrd-info / slices=1 / no-opt-qp-pps / no-opt-ref-list-length-pps / no-multi-pass-opt-rps / scenecut-bias=0.05 / no-opt-cu-delta-qp / no-aq-motion / no-hdr / no-hdr-opt / no-dhdr10-opt / no-idr-recovery-sei / analysis-reuse-level=5 / scale-factor=0 / refine-intra=0 / refine-inter=0 / refine-mv=0 / no-limit-sao / ctu-info=0 / no-lowpass-dct / refine-mv-type=0 / copy-pic=1 / max-ausize-factor=1.0 / no-dynamic-refine / no-single-sei Default : Yes Forced : No Color range : Limited Color primaries : BT.709 Transfer characteristics : BT.709 Matrix coefficients : BT.709 Audio ID : 2 Format : AAC LC Format/Info : Advanced Audio Codec Low Complexity Codec ID : A_AAC-2 Duration : 24 min 15 s Bit rate : 253 kb/s Channel(s) : 2 channels Channel layout : L R Sampling rate : 48.0 kHz Frame rate : 46.875 FPS (1024 SPF) Compression mode : Lossy Stream size : 44.0 MiB (15%) Language : English Default : Yes Forced : No Source: Funi WEB-DL

File list

  • [Arukoru] The Quintessential Quintuplets - Episode 07 - Liar McLieface [1080p x265 10bit WEB English Dub AAC].mkv (299.3 MiB)
Think there's any chance you could do The Seven Deadly Sins? Nobody has done Season 2 Dual Audio 265. :) Or 1.5 either I think. Either way, keep up the great work, thanks!

Arukoru (uploader)

User
@Leafshade I can do season 1, season 2 and 1.5 haven't come out on blu-ray yet
Are you sure? I thought 2 was just out recently, my bad, sorry, and that'd be cool!