[Arukoru] Go-Toubun no Hanayome (The Quintessential Quintuplets) - Episode 10 [1080p x265 10bit WEB Multi-Sub AAC]

Category:
Date:
2019-03-15 04:24 UTC
Submitter:
Seeders:
7
Information:
No information.
Leechers:
0
File size:
248.8 MiB
Completed:
190
Info hash:
fb2eca7082305e82fbf102e7e80f215833e82d54
[![Arukoru-Go-Toubun-no-Hanayome-The-Quintessential-Quintuplets.png](https://i.postimg.cc/JzBdKZxk/Arukoru-Go-Toubun-no-Hanayome-The-Quintessential-Quintuplets.png)](https://postimg.cc/9DCpQ4vm) [![Arukoru-Go-Toubun-no-Hanayome-The-Quintessential-Quintuplets.png](https://i.postimg.cc/SRJGRbtM/Arukoru-Go-Toubun-no-Hanayome-The-Quintessential-Quintuplets.png)](https://postimg.cc/dZcCNpFs) [![Arukoru-Go-Toubun-no-Hanayome-The-Quintessential-Quintuplets.png](https://i.postimg.cc/66m0STyL/Arukoru-Go-Toubun-no-Hanayome-The-Quintessential-Quintuplets.png)](https://postimg.cc/LhjLg9kn) Format : Matroska Format version : Version 4 File size : 249 MiB Duration : 24 min 5 s Overall bit rate : 1 444 kb/s Encoded date : UTC 2019-03-15 04:16:58 Writing application : mkvmerge v29.0.0 ('Like It Or Not') 64-bit Writing library : libebml v1.3.6 + libmatroska v1.4.9 / Lavf58.20.100 Video ID : 1 Format : HEVC Format/Info : High Efficiency Video Coding Format profile : Main 10@L4@Main Codec ID : V_MPEGH/ISO/HEVC Duration : 24 min 5 s Bit rate : 1 312 kb/s Width : 1 920 pixels Height : 1 080 pixels Display aspect ratio : 16:9 Frame rate mode : Constant Frame rate : 23.976 (24000/1001) FPS Color space : YUV Chroma subsampling : 4:2:0 Bit depth : 10 bits Bits/(Pixel*Frame) : 0.026 Stream size : 226 MiB (91%) Writing library : x265 2.9:[Windows][GCC 7.1.0][64 bit] 10bit Default : Yes Forced : No Color range : Limited Color primaries : BT.709 Transfer characteristics : BT.709 Matrix coefficients : BT.709 Audio ID : 2 Format : AAC LC Format/Info : Advanced Audio Codec Low Complexity Codec ID : A_AAC-2 Duration : 24 min 5 s Bit rate : 128 kb/s Channel(s) : 2 channels Channel layout : L R Sampling rate : 44.1 kHz Frame rate : 43.066 FPS (1024 SPF) Compression mode : Lossy Stream size : 22.1 MiB (9%) Language : Japanese Default : Yes Forced : No Text #1 ID : 3 Format : ASS Codec ID : S_TEXT/ASS Codec ID/Info : Advanced Sub Station Alpha Duration : 24 min 1 s Bit rate : 147 b/s Count of elements : 436 Compression mode : Lossless Stream size : 26.0 KiB (0%) Language : English Default : Yes Forced : Yes Text #2 ID : 4 Format : ASS Codec ID : S_TEXT/ASS Codec ID/Info : Advanced Sub Station Alpha Duration : 24 min 2 s Bit rate : 150 b/s Count of elements : 378 Compression mode : Lossless Stream size : 26.4 KiB (0%) Language : German Default : No Forced : No Text #3 ID : 5 Format : ASS Codec ID : S_TEXT/ASS Codec ID/Info : Advanced Sub Station Alpha Duration : 24 min 1 s Bit rate : 147 b/s Count of elements : 426 Compression mode : Lossless Stream size : 26.0 KiB (0%) Language : Spanish Default : No Forced : No Text #4 ID : 6 Format : ASS Codec ID : S_TEXT/ASS Codec ID/Info : Advanced Sub Station Alpha Duration : 24 min 1 s Bit rate : 147 b/s Count of elements : 426 Compression mode : Lossless Stream size : 26.0 KiB (0%) Title : Mexico Language : Spanish Default : No Forced : No Text #5 ID : 7 Format : ASS Codec ID : S_TEXT/ASS Codec ID/Info : Advanced Sub Station Alpha Duration : 24 min 2 s Bit rate : 144 b/s Count of elements : 383 Compression mode : Lossless Stream size : 25.4 KiB (0%) Language : French Default : No Forced : No Text #6 ID : 8 Format : ASS Codec ID : S_TEXT/ASS Codec ID/Info : Advanced Sub Station Alpha Duration : 24 min 1 s Bit rate : 154 b/s Count of elements : 441 Compression mode : Lossless Stream size : 27.2 KiB (0%) Language : Italian Default : No Forced : No Text #7 ID : 9 Format : ASS Codec ID : S_TEXT/ASS Codec ID/Info : Advanced Sub Station Alpha Duration : 24 min 2 s Bit rate : 133 b/s Count of elements : 395 Compression mode : Lossless Stream size : 23.5 KiB (0%) Language : Portuguese Default : No Forced : No Text #8 ID : 10 Format : ASS Codec ID : S_TEXT/ASS Codec ID/Info : Advanced Sub Station Alpha Duration : 24 min 1 s Bit rate : 179 b/s Count of elements : 427 Compression mode : Lossless Stream size : 31.7 KiB (0%) Language : Russian Default : No Forced : No Source: CR WEB-DL

File list

  • [Arukoru] Go-Toubun no Hanayome (The Quintessential Quintuplets) - Episode 10 [1080p x265 10bit WEB Multi-Sub AAC].mkv (248.8 MiB)