[Arukoru] Hakata Tonkotsu Ramens [1080p x265 10bit BD Dual Audio AAC]

Category:
Date:
2019-03-14 00:05 UTC
Submitter:
Seeders:
3
Information:
No information.
Leechers:
0
File size:
4.1 GiB
Completed:
288
Info hash:
9cb08a02f2518c3cb4b67b35c831df560280789a
[![Episode-01-Play-Ball-mkv-snapshot-06-17-2019-03-13-18-27-36.jpg](https://i.postimg.cc/7LdGXkW9/Episode-01-Play-Ball-mkv-snapshot-06-17-2019-03-13-18-27-36.jpg)](https://postimg.cc/GBPmhZrT) [![Episode-02-Irregular-mkv-snapshot-05-10-2019-03-13-18-29-45.jpg](https://i.postimg.cc/c1Qg7PM7/Episode-02-Irregular-mkv-snapshot-05-10-2019-03-13-18-29-45.jpg)](https://postimg.cc/RqZZ4sYq) [![Episode-03-Teamwork-mkv-snapshot-16-36-2019-03-13-18-30-52.jpg](https://i.postimg.cc/CLSZcJm3/Episode-03-Teamwork-mkv-snapshot-16-36-2019-03-13-18-30-52.jpg)](https://postimg.cc/K4pvz7Xf) Format : Matroska Format version : Version 4 File size : 353 MiB Duration : 23 min 42 s Overall bit rate : 2 082 kb/s Movie name : Hakata_Tonkotsu_Ramens_D1 Encoded date : UTC 2019-03-13 21:04:48 Writing application : mkvmerge v30.1.0 ('Forever And More') 64-bit Writing library : libebml v1.3.6 + libmatroska v1.4.9 / Lavf58.20.100 Video ID : 1 Format : HEVC Format/Info : High Efficiency Video Coding Format profile : Main 10@L4@Main Codec ID : V_MPEGH/ISO/HEVC Duration : 23 min 42 s Bit rate : 1 400 kb/s Width : 1 920 pixels Height : 1 080 pixels Display aspect ratio : 16:9 Frame rate mode : Constant Frame rate : 23.976 (24000/1001) FPS Color space : YUV Chroma subsampling : 4:2:0 Bit depth : 10 bits Bits/(Pixel*Frame) : 0.028 Stream size : 237 MiB (67%) Writing library : x265 2.9:[Windows][GCC 7.1.0][64 bit] 10bit Encoding settings : cpuid=1111039 / frame-threads=3 / numa-pools=12 / wpp / no-pmode / no-pme / no-psnr / no-ssim / log-level=2 / input-csp=1 / input-res=1920x1080 / interlace=0 / total-frames=0 / level-idc=0 / high-tier=1 / uhd-bd=0 / ref=4 / no-allow-non-conformance / no-repeat-headers / annexb / no-aud / no-hrd / info / hash=0 / no-temporal-layers / open-gop / min-keyint=24 / keyint=240 / gop-lookahead=0 / bframes=8 / b-adapt=2 / b-pyramid / bframe-bias=0 / rc-lookahead=30 / lookahead-slices=4 / scenecut=40 / radl=0 / no-intra-refresh / ctu=64 / min-cu-size=8 / rect / amp / max-tu-size=32 / tu-inter-depth=2 / tu-intra-depth=2 / limit-tu=4 / rdoq-level=2 / dynamic-rd=0.00 / no-ssim-rd / signhide / no-tskip / nr-intra=0 / nr-inter=0 / no-constrained-intra / strong-intra-smoothing / max-merge=3 / limit-refs=2 / limit-modes / me=3 / subme=3 / merange=57 / temporal-mvp / weightp / weightb / no-analyze-src-pics / deblock=0:0 / sao / no-sao-non-deblock / rd=6 / no-early-skip / rskip / no-fast-intra / no-tskip-fast / no-cu-lossless / b-intra / no-splitrd-skip / rdpenalty=0 / psy-rd=2.00 / psy-rdoq=1.00 / no-rd-refine / no-lossless / cbqpoffs=0 / crqpoffs=0 / rc=crf / crf=19.0 / qcomp=0.60 / qpstep=4 / stats-write=0 / stats-read=0 / ipratio=1.40 / pbratio=1.30 / aq-mode=1 / aq-strength=1.00 / cutree / zone-count=0 / no-strict-cbr / qg-size=32 / no-rc-grain / qpmax=69 / qpmin=0 / no-const-vbv / sar=1 / overscan=0 / videoformat=5 / range=0 / colorprim=1 / transfer=1 / colormatrix=1 / chromaloc=0 / display-window=0 / max-cll=0,0 / min-luma=0 / max-luma=1023 / log2-max-poc-lsb=8 / vui-timing-info / vui-hrd-info / slices=1 / no-opt-qp-pps / no-opt-ref-list-length-pps / no-multi-pass-opt-rps / scenecut-bias=0.05 / no-opt-cu-delta-qp / no-aq-motion / no-hdr / no-hdr-opt / no-dhdr10-opt / no-idr-recovery-sei / analysis-reuse-level=5 / scale-factor=0 / refine-intra=0 / refine-inter=0 / refine-mv=0 / no-limit-sao / ctu-info=0 / no-lowpass-dct / refine-mv-type=0 / copy-pic=1 / max-ausize-factor=1.0 / no-dynamic-refine / no-single-sei Default : Yes Forced : No Color range : Limited Color primaries : BT.709 Transfer characteristics : BT.709 Matrix coefficients : BT.709 Audio #1 ID : 4 Format : AAC LC Format/Info : Advanced Audio Codec Low Complexity Codec ID : A_AAC-2 Duration : 23 min 42 s Bit rate : 470 kb/s Channel(s) : 6 channels Channel layout : C L R Ls Rs LFE Sampling rate : 48.0 kHz Frame rate : 46.875 FPS (1024 SPF) Compression mode : Lossy Delay relative to video : 9 ms Stream size : 79.7 MiB (23%) Language : English Default : Yes Forced : No Audio #2 ID : 5 Format : AAC LC Format/Info : Advanced Audio Codec Low Complexity Codec ID : A_AAC-2 Duration : 23 min 42 s Bit rate : 192 kb/s Channel(s) : 2 channels Channel layout : L R Sampling rate : 48.0 kHz Frame rate : 46.875 FPS (1024 SPF) Compression mode : Lossy Delay relative to video : 9 ms Stream size : 32.4 MiB (9%) Language : Japanese Default : No Forced : No Text #1 ID : 2 Format : PGS Muxing mode : zlib Codec ID : S_HDMV/PGS Codec ID/Info : Picture based subtitle format used on BDs/HD-DVDs Duration : 23 min 35 s Bit rate : 50.0 kb/s Count of elements : 833 Stream size : 8.44 MiB (2%) Language : English Default : No Forced : No Text #2 ID : 3 Format : PGS Muxing mode : zlib Codec ID : S_HDMV/PGS Codec ID/Info : Picture based subtitle format used on BDs/HD-DVDs Duration : 23 min 35 s Bit rate : 4 609 b/s Count of elements : 74 Stream size : 797 KiB (0%) Language : English Default : Yes Forced : Yes Menu 00:00:00.000 : :Chapter 1 00:02:39.034 : :Chapter 2 00:09:41.081 : :Chapter 3 00:22:07.076 : :Chapter 4 00:23:36.040 : :Chapter 5 Source: USBD [![704400020285-anime-Hakata-Tonkotsu-Ramens-Blu-ray-DVD-primary.jpg](https://i.postimg.cc/W1pk1SZG/704400020285-anime-Hakata-Tonkotsu-Ramens-Blu-ray-DVD-primary.jpg)](https://postimg.cc/KRVz9PJj)

File list

  • [Arukoru] Hakata Tonkotsu Ramens [1080p x265 10bit BD Dual Audio AAC]
    • Episode 01 - Play Ball.mkv (352.9 MiB)
    • Episode 02 - Irregular.mkv (354.6 MiB)
    • Episode 03 - Teamwork.mkv (347.7 MiB)
    • Episode 04 - Ninth Inning, Two Outs.mkv (338.9 MiB)
    • Episode 05 - Tryouts.mkv (367.8 MiB)
    • Episode 06 - Pinch Hitter.mkv (347.7 MiB)
    • Episode 07 - Leadoff Hitter.mkv (345.0 MiB)
    • Episode 08 - Trick Play.mkv (359.6 MiB)
    • Episode 09 - Hit and Run.mkv (357.6 MiB)
    • Episode 10 - Shortstop.mkv (359.6 MiB)
    • Episode 11 - Brawl.mkv (316.4 MiB)
    • Episode 12 - Walk-Off Home Run.mkv (302.7 MiB)